[4K测试视频] [国家地理] 阿尔泰山脉(2020)[2160P/MKV/299MB]

[复制链接]

2262

主题

2551

帖子

2万

积分

超级版主

Rank: 8Rank: 8

积分
21144
 楼主| 发表于 2021-3-12 11:30:00 | 显示全部楼层 |阅读模式

阿尔泰山脉(2020)WEBRip 2160p.mkv_20210311_203115.027.jpg 阿尔泰山脉(2020)WEBRip 2160p.mkv_20210311_203149.670.jpg 阿尔泰山脉(2020)WEBRip 2160p.mkv_20210311_203158.558.jpg 阿尔泰山脉(2020)WEBRip 2160p.mkv_20210311_203205.726.jpg

有关信息
标题: Gorny Altai
原始标题: Altai Mountains
发行年份: 2020
国家/地区:俄罗斯
时长: 00 : 02 : 34
类型: 种类
导演: Vadim Makhorov

关于电影:

         我与朋友一起在阿尔泰环礁旅行期间拍摄了这段视频,并参观了阿克特鲁山谷。这是在戈尔尼阿尔泰(Gorny Altai)最好的路线,该路线穿过Chuisky道,到达Katu-Yaryk通行证,到达Chulyshman河谷,再有渡轮穿越Teletskoye湖。可以说,这段视频是关于我在阿尔泰最喜欢的地方。



General
Complete name                  : J:\阿尔泰山脉(2020)WEBRip 2160p.mkv
Format                         : Matroska
Format version                 : Version 4
File size                      : 300 MiB
Duration                       : 2 min 34 s
Overall bit rate               : 16.2 Mb/s
Encoded date                   : UTC 2021-01-26 15:55:59
Writing application            : mkvmerge v52.0.0 ('Secret For The Mad') 64-bit
Writing library                : libebml v1.4.1 + libmatroska v1.6.2 / Lavf58.29.100

Video
ID                             : 1
Format                         : VP9
Codec ID                       : V_VP9
Duration                       : 2 min 34 s
Bit rate                       : 16.1 Mb/s
Width                          : 3 840 pixels
Height                         : 2 160 pixels
Display aspect ratio           : 16:9
Frame rate mode                : Constant
Frame rate                     : 25.000 FPS
Color space                    : YUV
Bits/(Pixel*Frame)             : 0.078
Stream size                    : 297 MiB (99%)
Default                        : Yes
Forced                         : No
Color range                    : Limited
Color primaries                : BT.709
Transfer characteristics       : BT.709
Matrix coefficients            : BT.709

Audio
ID                             : 2
Format                         : Opus
Codec ID                       : A_OPUS
Duration                       : 2 min 34 s
Bit rate                       : 131 kb/s
Channel(s)                     : 2 channels
Channel layout                 : L R
Sampling rate                  : 48.0 kHz
Frame rate                     : 50.001 FPS (960 SPF)
Compression mode               : Lossy
Stream size                    : 2.41 MiB (1%)
Default                        : Yes
Forced                         : No



下载链接:
阿尔泰山脉(299MB)(2020)WEBRip 2160p.torrent (12.72 KB, 售价: 15 金币)
回复

使用道具 举报

0

主题

1271

帖子

3645

积分

中级会员

Rank: 4

积分
3645
发表于 2021-3-12 11:30:52 来自手机 | 显示全部楼层
为了三千积分!
回复 支持 反对

使用道具 举报

0

主题

3503

帖子

9830

积分

4K家园VIP

Rank: 9Rank: 9Rank: 9

积分
9830
发表于 2021-3-12 11:45:35 | 显示全部楼层
俄罗斯阿尔泰山脉4k
回复 支持 反对

使用道具 举报

0

主题

1173

帖子

3345

积分

4K家园VIP

Rank: 9Rank: 9Rank: 9

积分
3345
发表于 2021-3-12 13:56:16 | 显示全部楼层
边撸边过
回复 支持 反对

使用道具 举报

45

主题

1363

帖子

3931

积分

4K家园VIP

Rank: 9Rank: 9Rank: 9

积分
3931
发表于 2021-3-12 14:36:05 来自手机 | 显示全部楼层
1v1飘过
回复 支持 反对

使用道具 举报

0

主题

1610

帖子

4376

积分

中级会员

Rank: 4

积分
4376
发表于 2021-3-12 17:00:48 来自手机 | 显示全部楼层
试试看吧
回复 支持 反对

使用道具 举报

1

主题

1215

帖子

3661

积分

4K家园VIP

Rank: 9Rank: 9Rank: 9

积分
3661
发表于 2021-3-13 01:10:35 来自手机 | 显示全部楼层
支持一下楼主发表的内容
回复 支持 反对

使用道具 举报

0

主题

413

帖子

1414

积分

注册会员

Rank: 2

积分
1414
发表于 2021-3-19 20:28:11 | 显示全部楼层
感谢楼主分享
回复 支持 反对

使用道具 举报

您需要登录后才可以回帖 登录 | 立即注册

本版积分规则

精彩图文
Archiver|手机版|TAG|Sitemap|新帖|专题|联系我们:邮箱: 4kjia.com@gmail.com   

4k家园   ©2019