[4K记录视频] [国家地理] 冰岛狂野(2020)[2160P/MKV/423MB]

[复制链接]

2262

主题

2551

帖子

2万

积分

超级版主

Rank: 8Rank: 8

积分
21144
 楼主| 发表于 2021-3-13 11:00:00 | 显示全部楼层 |阅读模式
冰岛狂野.MKV_20210311_204322.710.jpg 冰岛狂野.MKV_20210311_204336.302.jpg 冰岛狂野.MKV_20210311_204356.918.jpg 冰岛狂野.MKV_20210311_204405.566.jpg 冰岛狂野.MKV_20210311_204411.030.jpg 冰岛狂野.MKV_20210311_204434.214.jpg

电影信息
标题: Wild Iceland
发行: 2020
类型: 种类
导演: ArvīdsBarānovs

关于电影:
我们错过了您可能在Instagram上看到的最多的旅游景点,并深入了高原和外围的西峡湾。多长时间的远足到Hornstrandir才能真正领略这片美丽的土地。

国家:冰岛
时间: 0时02分57秒


General
Complete name                  : J:\冰岛狂野.MKV
Format                         : Matroska
Format version                 : Version 4
File size                      : 423 MiB
Duration                       : 2 min 57 s
Overall bit rate               : 20.1 Mb/s
Encoded date                   : UTC 2020-12-08 17:36:56
Writing application            : mkvmerge v51.0.0 ('I Wish') 64-bit
Writing library                : libebml v1.4.0 + libmatroska v1.6.2

Video
ID                             : 1
Format                         : AVC
Format/Info                    : Advanced Video Codec
Format profile                 : High@L5.2
Format settings                : CABAC / 5 Ref Frames
Format settings, CABAC         : Yes
Format settings, Reference fra : 5 frames
Codec ID                       : V_MPEG4/ISO/AVC
Duration                       : 2 min 57 s
Bit rate                       : 19.8 Mb/s
Width                          : 3 840 pixels
Height                         : 2 160 pixels
Display aspect ratio           : 16:9
Frame rate mode                : Constant
Frame rate                     : 25.000 FPS
Color space                    : YUV
Chroma subsampling             : 4:2:0
Bit depth                      : 8 bits
Scan type                      : Progressive
Bits/(Pixel*Frame)             : 0.095
Stream size                    : 418 MiB (99%)
Writing library                : x264 core 157 r10 d4099dd
Encoding settings              : cabac=1 / ref=5 / deblock=1:0:0 / analyse=0x3:0x113 / me=hex / subme=8 / psy=1 / psy_rd=1.00:0.00 / mixed_ref=1 / me_range=16 / chroma_me=1 / trellis=2 / 8x8dct=1 / cqm=0 / deadzone=21,11 / fast_pskip=1 / chroma_qp_offset=-2 / threads=48 / lookahead_threads=8 / sliced_threads=0 / nr=0 / decimate=1 / interlaced=0 / bluray_compat=0 / stitchable=1 / constrained_intra=0 / bframes=3 / b_pyramid=2 / b_adapt=2 / b_bias=0 / direct=3 / weightb=1 / open_gop=0 / weightp=2 / keyint=infinite / keyint_min=25 / scenecut=40 / intra_refresh=0 / rc_lookahead=50 / rc=crf / mbtree=1 / crf=20.0 / qcomp=0.60 / qpmin=5 / qpmax=69 / qpstep=4 / vbv_maxrate=24200 / vbv_bufsize=66000 / crf_max=0.0 / nal_hrd=none / filler=0 / ip_ratio=1.40 / aq=1:1.00
Default                        : Yes
Forced                         : No
Color range                    : Limited
Color primaries                : BT.709
Transfer characteristics       : BT.709
Matrix coefficients            : BT.709

Audio
ID                             : 2
Format                         : AAC LC
Format/Info                    : Advanced Audio Codec Low Complexity
Codec ID                       : A_AAC-2
Duration                       : 2 min 57 s
Bit rate                       : 253 kb/s
Channel(s)                     : 2 channels
Channel layout                 : L R
Sampling rate                  : 48.0 kHz
Frame rate                     : 46.875 FPS (1024 SPF)
Compression mode               : Lossy
Stream size                    : 5.35 MiB (1%)
Default                        : Yes
Forced                         : No



下载链接: 冰岛狂野(423MB)(2020)WEBRip 2160p.torrent (17.54 KB, 售价: 15 金币)
回复

使用道具 举报

52

主题

1357

帖子

3937

积分

4K家园VIP

Rank: 9Rank: 9Rank: 9

积分
3937
发表于 2021-3-13 11:00:08 | 显示全部楼层
体验下4K版的
回复 支持 反对

使用道具 举报

45

主题

1363

帖子

3931

积分

4K家园VIP

Rank: 9Rank: 9Rank: 9

积分
3931
发表于 2021-3-13 11:00:08 | 显示全部楼层
出4K版啦,下个看看
回复 支持 反对

使用道具 举报

0

主题

6

帖子

52

积分

新手上路

Rank: 1

积分
52
发表于 2021-3-13 11:23:10 | 显示全部楼层

出4K版啦,下个看看
回复 支持 反对

使用道具 举报

0

主题

3503

帖子

9830

积分

4K家园VIP

Rank: 9Rank: 9Rank: 9

积分
9830
发表于 2021-3-13 11:24:30 | 显示全部楼层
冰岛狂野4k
回复 支持 反对

使用道具 举报

0

主题

19

帖子

472

积分

新手上路

Rank: 1

积分
472
发表于 2021-3-14 00:13:35 | 显示全部楼层
出4K版啦,下个看看
回复 支持 反对

使用道具 举报

2

主题

1510

帖子

4096

积分

4K家园VIP

Rank: 9Rank: 9Rank: 9

积分
4096
发表于 2021-3-17 23:32:34 | 显示全部楼层
你们要是有4K资源记得分享,别小气
回复 支持 反对

使用道具 举报

0

主题

413

帖子

1414

积分

注册会员

Rank: 2

积分
1414
发表于 2021-3-19 20:27:55 | 显示全部楼层
感谢楼主分享
回复 支持 反对

使用道具 举报

36

主题

1266

帖子

3620

积分

4K家园VIP

Rank: 9Rank: 9Rank: 9

积分
3620
发表于 2021-3-21 01:18:26 | 显示全部楼层
4K应该不错,我也下个看看
回复 支持 反对

使用道具 举报

1

主题

1476

帖子

4070

积分

4K家园VIP

Rank: 9Rank: 9Rank: 9

积分
4070
发表于 2021-3-21 03:58:33 | 显示全部楼层
好,很好,非常好!
回复 支持 反对

使用道具 举报

您需要登录后才可以回帖 登录 | 立即注册

本版积分规则

精彩图文
Archiver|手机版|TAG|Sitemap|新帖|专题|联系我们:邮箱: 4kjia.com@gmail.com   

4k家园   ©2019