[4K记录视频] [国家地理] 创世纪(2020)[2160P/MKV/724MB]

[复制链接]

2263

主题

2552

帖子

2万

积分

超级版主

Rank: 8Rank: 8

积分
21158
 楼主| 发表于 2021-3-15 10:30:00 | 显示全部楼层 |阅读模式

创世纪(724MB)(2020)WEBRip 2160p.mkv_20210311_210927.349.jpg 创世纪(724MB)(2020)WEBRip 2160p.mkv_20210311_210935.894.jpg 创世纪(724MB)(2020)WEBRip 2160p.mkv_20210311_210947.454.jpg 创世纪(724MB)(2020)WEBRip 2160p.mkv_20210311_210954.510.jpg 创世纪(724MB)(2020)WEBRip 2160p.mkv_20210311_211005.990.jpg 创世纪(724MB)(2020)WEBRip 2160p.mkv_20210311_211015.670.jpg 创世纪(724MB)(2020)WEBRip 2160p.mkv_20210311_211029.582.jpg 创世纪(724MB)(2020)WEBRip 2160p.mkv_20210311_211050.782.jpg

有关信息
标题:创世纪
发行年份: 2020
国家/地区:日本
持续时间:00:05 : 51
类型: 种类
导演:清水大辅

关于电影:

    日本经历了许多地震,灾难和战争,我们日本人民每次都克服了这些困难。


General
Complete name                  : J:\创世纪(724MB)(2020)WEBRip 2160p.mkv
Format                         : Matroska
Format version                 : Version 4
File size                      : 725 MiB
Duration                       : 5 min 51 s
Overall bit rate               : 17.3 Mb/s
Encoded date                   : UTC 2021-03-05 19:33:18
Writing application            : mkvmerge v54.0.0 ('F Maj Pixie') 64-bit
Writing library                : libebml v1.4.2 + libmatroska v1.6.3

Video
ID                             : 1
Format                         : AVC
Format/Info                    : Advanced Video Codec
Format profile                 : High@L5.2
Format settings                : CABAC / 5 Ref Frames
Format settings, CABAC         : Yes
Format settings, Reference fra : 5 frames
Codec ID                       : V_MPEG4/ISO/AVC
Duration                       : 5 min 51 s
Bit rate                       : 17.0 Mb/s
Width                          : 3 840 pixels
Height                         : 1 634 pixels
Display aspect ratio           : 2.35:1
Frame rate mode                : Constant
Frame rate                     : 29.970 (30000/1001) FPS
Color space                    : YUV
Chroma subsampling             : 4:2:0
Bit depth                      : 8 bits
Scan type                      : Progressive
Bits/(Pixel*Frame)             : 0.090
Stream size                    : 714 MiB (99%)
Writing library                : x264 core 160 r10 33f9e14
Encoding settings              : cabac=1 / ref=5 / deblock=1:0:0 / analyse=0x3:0x113 / me=hex / subme=8 / psy=1 / psy_rd=1.00:0.00 / mixed_ref=1 / me_range=16 / chroma_me=1 / trellis=2 / 8x8dct=1 / cqm=0 / deadzone=21,11 / fast_pskip=1 / chroma_qp_offset=-2 / threads=48 / lookahead_threads=8 / sliced_threads=0 / nr=0 / decimate=1 / interlaced=0 / bluray_compat=0 / stitchable=1 / constrained_intra=0 / bframes=3 / b_pyramid=2 / b_adapt=2 / b_bias=0 / direct=3 / weightb=1 / open_gop=0 / weightp=2 / keyint=infinite / keyint_min=29 / scenecut=40 / intra_refresh=0 / rc_lookahead=50 / rc=crf / mbtree=1 / crf=20.0 / qcomp=0.60 / qpmin=5 / qpmax=69 / qpstep=4 / vbv_maxrate=24200 / vbv_bufsize=66000 / crf_max=0.0 / nal_hrd=none / filler=0 / ip_ratio=1.40 / aq=1:1.00
Default                        : Yes
Forced                         : No
Color range                    : Limited
Color primaries                : BT.709
Transfer characteristics       : BT.709
Matrix coefficients            : BT.709

Audio
ID                             : 2
Format                         : AAC LC
Format/Info                    : Advanced Audio Codec Low Complexity
Codec ID                       : A_AAC-2
Duration                       : 5 min 51 s
Bit rate                       : 253 kb/s
Channel(s)                     : 2 channels
Channel layout                 : L R
Sampling rate                  : 48.0 kHz
Frame rate                     : 46.875 FPS (1024 SPF)
Compression mode               : Lossy
Stream size                    : 10.6 MiB (1%)
Default                        : Yes
Forced                         : No



下载链接: 创世纪(724MB)(2020)WEBRip 2160p.torrent (15.15 KB, 售价: 15 金币)
回复

使用道具 举报

2

主题

1204

帖子

3462

积分

中级会员

Rank: 4

积分
3462
发表于 2021-3-15 10:30:06 | 显示全部楼层
出4K版啦,下个看看
回复 支持 反对

使用道具 举报

0

主题

3512

帖子

9852

积分

4K家园VIP

Rank: 9Rank: 9Rank: 9

积分
9852
发表于 2021-3-15 13:06:27 | 显示全部楼层
太好啦&萬分感謝版主的無私發佈分享%
回复 支持 反对

使用道具 举报

0

主题

418

帖子

1432

积分

注册会员

Rank: 2

积分
1432
发表于 2021-3-19 20:25:51 | 显示全部楼层
感谢楼主分享
回复 支持 反对

使用道具 举报

1

主题

1104

帖子

3328

积分

4K家园VIP

Rank: 9Rank: 9Rank: 9

积分
3328
发表于 2021-3-20 01:38:46 来自手机 | 显示全部楼层
是爷们的娘们的都帮顶!大力支持
回复 支持 反对

使用道具 举报

40

主题

1386

帖子

3988

积分

4K家园VIP

Rank: 9Rank: 9Rank: 9

积分
3988
发表于 2021-3-26 02:19:25 | 显示全部楼层
鼎力支持!!
回复 支持 反对

使用道具 举报

1

主题

1192

帖子

3398

积分

4K家园VIP

Rank: 9Rank: 9Rank: 9

积分
3398
发表于 2021-3-26 11:21:33 来自手机 | 显示全部楼层
支持,楼下的跟上哈~
回复 支持 反对

使用道具 举报

0

主题

1272

帖子

3622

积分

4K家园VIP

Rank: 9Rank: 9Rank: 9

积分
3622
发表于 7 天前 来自手机 | 显示全部楼层
看着好像不错
回复 支持 反对

使用道具 举报

您需要登录后才可以回帖 登录 | 立即注册

本版积分规则

精彩图文
Archiver|手机版|TAG|Sitemap|新帖|专题|联系我们:邮箱: 4kjia.com@gmail.com   

4k家园   ©2019