[4K记录视频] [国家地理] 拉贾·安帕特-海洋亚马逊(2020)[2160P/MKV/578MB]

[复制链接]

2263

主题

2552

帖子

2万

积分

超级版主

Rank: 8Rank: 8

积分
21158
 楼主| 发表于 2021-3-18 17:30:00 | 显示全部楼层 |阅读模式

拉贾·安帕特(Raja Ampat)-海洋亚马逊(578MB)(2020)WEBRip 2160p.mkv_20210311_.jpg 拉贾·安帕特(Raja Ampat)-海洋亚马逊(578MB)(2020)WEBRip 2160p.mkv_20210311_.jpg 拉贾·安帕特(Raja Ampat)-海洋亚马逊(578MB)(2020)WEBRip 2160p.mkv_20210311_.jpg 拉贾·安帕特(Raja Ampat)-海洋亚马逊(578MB)(2020)WEBRip 2160p.mkv_20210311_.jpg 拉贾·安帕特(Raja Ampat)-海洋亚马逊(578MB)(2020)WEBRip 2160p.mkv_20210311_.jpg 拉贾·安帕特(Raja Ampat)-海洋亚马逊(578MB)(2020)WEBRip 2160p.mkv_20210311_.jpg

有关信息
标题:拉贾·安帕特-海洋亚马逊
发行年份: 2020
国家/地区: Indonesia
时长: 00 : 03 : 57
类型: 种类
导演:奥利弗·阿斯特罗戈格


关于电影:

    拉贾·安帕特及其疯狂的清澈的水,泻湖,瀑布巨大的丛林超越了您的想象。野生动物拥有无与伦比的财富,这颗珍珠是世界上所有已知珊瑚物种的四分之三的栖息地,这并非巧合。

General
Complete name                  : J:\拉贾·安帕特(Raja Ampat)-海洋亚马逊(578MB)(2020)WEBRip 2160p.mkv
Format                         : Matroska
Format version                 : Version 4
File size                      : 578 MiB
Duration                       : 3 min 27 s
Overall bit rate               : 23.4 Mb/s
Encoded date                   : UTC 2021-03-05 18:13:27
Writing application            : mkvmerge v54.0.0 ('F Maj Pixie') 64-bit
Writing library                : libebml v1.4.2 + libmatroska v1.6.3

Video
ID                             : 1
Format                         : AVC
Format/Info                    : Advanced Video Codec
Format profile                 : High@L5.2
Format settings                : CABAC / 5 Ref Frames
Format settings, CABAC         : Yes
Format settings, Reference fra : 5 frames
Codec ID                       : V_MPEG4/ISO/AVC
Duration                       : 3 min 27 s
Bit rate                       : 23.1 Mb/s
Width                          : 3 840 pixels
Height                         : 2 160 pixels
Display aspect ratio           : 16:9
Frame rate mode                : Constant
Frame rate                     : 25.000 FPS
Color space                    : YUV
Chroma subsampling             : 4:2:0
Bit depth                      : 8 bits
Scan type                      : Progressive
Bits/(Pixel*Frame)             : 0.112
Stream size                    : 572 MiB (99%)
Writing library                : x264 core 160 r10 33f9e14
Encoding settings              : cabac=1 / ref=5 / deblock=1:0:0 / analyse=0x3:0x113 / me=hex / subme=8 / psy=1 / psy_rd=1.00:0.00 / mixed_ref=1 / me_range=16 / chroma_me=1 / trellis=2 / 8x8dct=1 / cqm=0 / deadzone=21,11 / fast_pskip=1 / chroma_qp_offset=-2 / threads=48 / lookahead_threads=8 / sliced_threads=0 / nr=0 / decimate=1 / interlaced=0 / bluray_compat=0 / stitchable=1 / constrained_intra=0 / bframes=3 / b_pyramid=2 / b_adapt=2 / b_bias=0 / direct=3 / weightb=1 / open_gop=0 / weightp=2 / keyint=infinite / keyint_min=25 / scenecut=40 / intra_refresh=0 / rc_lookahead=50 / rc=crf / mbtree=1 / crf=20.0 / qcomp=0.60 / qpmin=5 / qpmax=69 / qpstep=4 / vbv_maxrate=24200 / vbv_bufsize=66000 / crf_max=0.0 / nal_hrd=none / filler=0 / ip_ratio=1.40 / aq=1:1.00
Default                        : Yes
Forced                         : No
Color range                    : Limited
Color primaries                : BT.709
Transfer characteristics       : BT.709
Matrix coefficients            : BT.709

Audio
ID                             : 2
Format                         : AAC LC
Format/Info                    : Advanced Audio Codec Low Complexity
Codec ID                       : A_AAC-2
Duration                       : 3 min 27 s
Bit rate                       : 253 kb/s
Channel(s)                     : 2 channels
Channel layout                 : L R
Sampling rate                  : 48.0 kHz
Frame rate                     : 46.875 FPS (1024 SPF)
Compression mode               : Lossy
Stream size                    : 6.26 MiB (1%)
Default                        : Yes
Forced                         : No




下载链接: 拉贾·安帕特(Raja Ampat)-海洋亚马逊(578MB)(2020)WEBRip 2160p.torrent (12.31 KB, 售价: 15 金币)
回复

使用道具 举报

46

主题

1311

帖子

3769

积分

4K家园VIP

Rank: 9Rank: 9Rank: 9

积分
3769
发表于 2021-3-18 17:30:04 | 显示全部楼层
报告!别开枪,我就是路过来看看的。。。
回复 支持 反对

使用道具 举报

0

主题

3521

帖子

9861

积分

4K家园VIP

Rank: 9Rank: 9Rank: 9

积分
9861
发表于 2021-3-18 18:47:59 | 显示全部楼层
拉贾·安帕特-海洋亚马逊4k
回复 支持 反对

使用道具 举报

1

主题

1509

帖子

4143

积分

4K家园VIP

Rank: 9Rank: 9Rank: 9

积分
4143
发表于 2021-3-18 23:35:48 | 显示全部楼层
无论是不是沙发都得回复下
回复 支持 反对

使用道具 举报

0

主题

418

帖子

1432

积分

注册会员

Rank: 2

积分
1432
发表于 2021-3-20 20:52:47 | 显示全部楼层
感谢分享好电影~
回复 支持 反对

使用道具 举报

1

主题

1232

帖子

3540

积分

4K家园VIP

Rank: 9Rank: 9Rank: 9

积分
3540
发表于 2021-3-24 05:32:35 | 显示全部楼层
广告位,,坐下看看
回复 支持 反对

使用道具 举报

0

主题

418

帖子

1432

积分

注册会员

Rank: 2

积分
1432
发表于 2021-3-24 21:04:37 | 显示全部楼层
谢谢楼主的分享
回复 支持 反对

使用道具 举报

0

主题

1185

帖子

3437

积分

4K家园VIP

Rank: 9Rank: 9Rank: 9

积分
3437
发表于 2021-3-26 18:52:53 来自手机 | 显示全部楼层
打酱油的人拉,回复下赚取积分
回复 支持 反对

使用道具 举报

49

主题

1337

帖子

3837

积分

4K家园VIP

Rank: 9Rank: 9Rank: 9

积分
3837
发表于 2021-3-28 20:25:56 来自手机 | 显示全部楼层
路过
回复 支持 反对

使用道具 举报

您需要登录后才可以回帖 登录 | 立即注册

本版积分规则

精彩图文
Archiver|手机版|TAG|Sitemap|新帖|专题|联系我们:邮箱: 4kjia.com@gmail.com   

4k家园   ©2019