[4K记录视频] [国家地理] 马德拉群岛(2020)[2160P/MKV/451MB]

[复制链接]

2263

主题

2552

帖子

2万

积分

超级版主

Rank: 8Rank: 8

积分
21158
 楼主| 发表于 2021-3-20 13:00:02 | 显示全部楼层 |阅读模式
本帖最后由 没完没了 于 2021-3-27 09:37 编辑

马德拉(2020)WEBRip 2160p.mkv_20210311_214222.318.jpg 马德拉(2020)WEBRip 2160p.mkv_20210311_214254.085.jpg 马德拉(2020)WEBRip 2160p.mkv_20210311_214307.437.jpg 马德拉(2020)WEBRip 2160p.mkv_20210311_214332.606.jpg

有关信息
标题:马德拉群岛
发行年份: 2020
国家/地区:葡萄牙
时长: 00 : 03 : 44
类型: 种类
导演: Ellis van Jason

关于电影:

        一年前,我问自己想成为什么样的飞行员。赛车无人机飞行员还是自由式飞行员?两种选择均无效,我花了一段时间才找到自己的位置。我最终进入了一个中等电影区,在这里我有点喜欢。


General
Complete name                  : J:\马德拉(2020)WEBRip 2160p.mkv
Format                         : Matroska
Format version                 : Version 4
File size                      : 452 MiB
Duration                       : 3 min 44 s
Overall bit rate               : 16.9 Mb/s
Encoded date                   : UTC 2021-01-26 16:22:36
Writing application            : mkvmerge v52.0.0 ('Secret For The Mad') 64-bit
Writing library                : libebml v1.4.1 + libmatroska v1.6.2 / Lavf58.29.100

Video
ID                             : 1
Format                         : VP9
Codec ID                       : V_VP9
Duration                       : 3 min 44 s
Bit rate                       : 16.8 Mb/s
Width                          : 3 840 pixels
Height                         : 2 160 pixels
Display aspect ratio           : 16:9
Frame rate mode                : Constant
Frame rate                     : 29.970 (30000/1001) FPS
Color space                    : YUV
Bits/(Pixel*Frame)             : 0.067
Stream size                    : 448 MiB (99%)
Default                        : Yes
Forced                         : No
Color range                    : Limited
Color primaries                : BT.709
Transfer characteristics       : BT.709
Matrix coefficients            : BT.709

Audio
ID                             : 2
Format                         : AAC LC
Format/Info                    : Advanced Audio Codec Low Complexity
Codec ID                       : A_AAC-2
Duration                       : 3 min 44 s
Bit rate                       : 128 kb/s
Channel(s)                     : 2 channels
Channel layout                 : L R
Sampling rate                  : 44.1 kHz
Frame rate                     : 43.066 FPS (1024 SPF)
Compression mode               : Lossy
Stream size                    : 3.42 MiB (1%)
Default                        : Yes
Forced                         : No



下载链接: 马德拉(451MB)(2020)WEBRip 2160p.torrent (18.65 KB, 售价: 9 金币)
回复

使用道具 举报

0

主题

1409

帖子

4067

积分

4K家园VIP

Rank: 9Rank: 9Rank: 9

积分
4067
发表于 2021-3-20 13:00:07 | 显示全部楼层
元芳你怎么看?
回复 支持 反对

使用道具 举报

0

主题

3512

帖子

9852

积分

4K家园VIP

Rank: 9Rank: 9Rank: 9

积分
9852
发表于 2021-3-20 13:33:01 | 显示全部楼层
葡萄牙马德拉4k
回复 支持 反对

使用道具 举报

0

主题

418

帖子

1432

积分

注册会员

Rank: 2

积分
1432
发表于 2021-3-20 20:55:06 | 显示全部楼层
感谢分享好电影~
回复 支持 反对

使用道具 举报

0

主题

1144

帖子

3446

积分

4K家园VIP

Rank: 9Rank: 9Rank: 9

积分
3446
发表于 2021-3-21 11:06:40 来自手机 | 显示全部楼层
没明白
回复 支持 反对

使用道具 举报

3

主题

1238

帖子

3544

积分

4K家园VIP

Rank: 9Rank: 9Rank: 9

积分
3544
发表于 2021-3-23 07:13:28 | 显示全部楼层
正需要
回复 支持 反对

使用道具 举报

3

主题

1461

帖子

3979

积分

4K家园VIP

Rank: 9Rank: 9Rank: 9

积分
3979
发表于 2021-3-23 22:53:54 来自手机 | 显示全部楼层
LZ是天才,坚定完毕
回复 支持 反对

使用道具 举报

0

主题

418

帖子

1432

积分

注册会员

Rank: 2

积分
1432
发表于 2021-3-24 21:01:56 | 显示全部楼层
谢谢楼主的分享
回复 支持 反对

使用道具 举报

37

主题

1336

帖子

3828

积分

4K家园VIP

Rank: 9Rank: 9Rank: 9

积分
3828
发表于 2021-3-26 23:33:57 | 显示全部楼层
你们要是有4K资源记得分享,别小气
回复 支持 反对

使用道具 举报

您需要登录后才可以回帖 登录 | 立即注册

本版积分规则

精彩图文
Archiver|手机版|TAG|Sitemap|新帖|专题|联系我们:邮箱: 4kjia.com@gmail.com   

4k家园   ©2019