[4K电影] 《野兽男孩的故事(内嵌中字)》4K高清下载/大小20.46GB

[复制链接]

411

主题

425

帖子

4095

积分

4K家园VIP

Rank: 9Rank: 9Rank: 9

积分
4095
 楼主| 发表于 2021-3-17 20:46:00 | 显示全部楼层 |阅读模式
p2590785400.webp_副本.jpg

◎译  名 野兽男孩的故事
◎片  名 Beastie Boys Story
◎年  代 2020
◎产  地 美国
◎类  别 纪录片
◎语  言 英语
◎上映日期 2020-04-02(美国)
◎IMDb评分 9.0/10 from 5 users
◎IMDb链接 https://www.imdb.com/title/tt11615290
◎豆瓣评分 0/10 from 0 users
◎豆瓣链接 https://movie.douban.com/subject/34950452/
◎导  演 斯派克·琼斯 Spike Jonze
◎编  剧 亚当·霍罗维茨 Adam Horovitz / 斯派克·琼斯 Spike Jonze / 麦克·D Mike D
◎主  演 亚当·霍罗维茨 Adam Horovitz
      麦克·D Mike D


◎简  介

  斯派克·琼斯执导的聚焦Beastie Boys的纪录片[野兽男孩的故事]释出正式预告!剧本将由琼斯和团体成员Mike Diamond和Adam Horovitz撰写。琼斯曾为其专辑热单《Sabotage》执导过MV。本片被宣传为一次现场纪录片体验,着重于该团体的历史和事迹以及其私密的个人故事。 该项目源于Diamond和Horowitz在2018年10月出版的《Beastie Boys Book》一书。本片将于4月24日登陆Apple TV+,另外还有特供版本将提前在IMAX影院4月2日限定开画。


Video
ID : 1
Format : HEVC
Format/Info : High Efficiency Video Coding
Format profile : Main 10@L5@High
HDR format : SMPTE ST 2086, HDR10 compatible
Codec ID : V_MPEGH/ISO/HEVC
Duration : 1 h 59 min
Bit rate : 23.9 Mb/s
Width : 3 840 pixels
Height : 2 160 pixels
Display aspect ratio : 16:9
Frame rate mode : Constant
Frame rate : 23.976 (24000/1001) FPS
Color space : YUV
Chroma subsampling : 4:2:0 (Type 2)
Bit depth : 10 bits
Bits/(Pixel*Frame) : 0.120
Stream size : 20.0 GiB (97%)
Default : Yes
Forced : No
Color range : Limited
Color primaries : BT.2020
Transfer characteristics : PQ
Matrix coefficients : BT.2020 non-constant
Mastering display color primaries : Display P3
Mastering display luminance : min: 0.0050 cd/m2, max: 1000 cd/m2
Maximum Content Light Level : 2292 cd/m2
Maximum Frame-Average Light Level : 78 cd/m2

Audio
ID : 2
Format : E-AC-3 JOC
Format/Info : Enhanced AC-3 with Joint Object Coding
Commercial name : Dolby Digital Plus with Dolby Atmos
Codec ID : A_EAC3
Duration : 1 h 59 min
Bit rate mode : Constant
Bit rate : 768 kb/s
Channel(s) : 6 channels
Channel layout : L R C LFE Ls Rs
Sampling rate : 48.0 kHz
Frame rate : 31.250 FPS (1536 SPF)
Compression mode : Lossy
Stream size : 656 MiB (3%)
Title : English
Language : English
Service kind : Complete Main
Default : Yes
Forced : No
Complexity index : 16
Number of dynamic objects : 15
Bed channel count : 1 channel
Bed channel configuration : LFE

Text #1
ID : 3
Format : UTF-8
Codec ID : S_TEXT/UTF8
Codec ID/Info : UTF-8 Plain Text
Duration : 1 h 56 min
Bit rate : 111 b/s
Count of elements : 2205
Stream size : 95.3 KiB (0%)
Title : English
Language : English
Default : No
Forced : No

Text #2
ID : 4
Format : UTF-8
Codec ID : S_TEXT/UTF8
Codec ID/Info : UTF-8 Plain Text
Duration : 2 s 169 ms
Bit rate : 140 b/s
Count of elements : 1
Stream size : 38.0 Bytes (0%)
Title : English [Forced]
Language : English
Default : No
Forced : Yes

Text #3
ID : 5
Format : UTF-8
Codec ID : S_TEXT/UTF8
Codec ID/Info : UTF-8 Plain Text
Duration : 1 h 57 min
Bit rate : 118 b/s
Count of elements : 2333
Stream size : 102 KiB (0%)
Title : English [SDH]
Language : English
Default : No
Forced : No

Text #4
ID : 6
Format : UTF-8
Codec ID : S_TEXT/UTF8
Codec ID/Info : UTF-8 Plain Text
Duration : 1 h 58 min
Bit rate : 163 b/s
Count of elements : 2242
Stream size : 142 KiB (0%)
Title : Arabic
Language : Arabic
Default : No
Forced : No

Text #5
ID : 7
Format : UTF-8
Codec ID : S_TEXT/UTF8
Codec ID/Info : UTF-8 Plain Text
Duration : 1 h 58 min
Bit rate : 144 b/s
Count of elements : 2093
Stream size : 126 KiB (0%)
Title : Bulgarian
Language : Bulgarian
Default : No
Forced : No

Text #6
ID : 8
Format : UTF-8
Codec ID : S_TEXT/UTF8
Codec ID/Info : UTF-8 Plain Text
Duration : 1 h 58 min
Bit rate : 91 b/s
Count of elements : 2190
Stream size : 79.8 KiB (0%)
Title : Czech
Language : Czech
Default : No
Forced : No

Text #7
ID : 9
Format : UTF-8
Codec ID : S_TEXT/UTF8
Codec ID/Info : UTF-8 Plain Text
Duration : 1 h 58 min
Bit rate : 90 b/s
Count of elements : 1686
Stream size : 78.9 KiB (0%)
Title : Danish
Language : Danish
Default : No
Forced : No

Text #8
ID : 10
Format : UTF-8
Codec ID : S_TEXT/UTF8
Codec ID/Info : UTF-8 Plain Text
Duration : 1 h 58 min
Bit rate : 95 b/s
Count of elements : 2189
Stream size : 83.4 KiB (0%)
Title : Dutch
Language : Dutch
Default : No
Forced : No

Text #9
ID : 11
Format : UTF-8
Codec ID : S_TEXT/UTF8
Codec ID/Info : UTF-8 Plain Text
Duration : 1 h 58 min
Bit rate : 90 b/s
Count of elements : 2210
Stream size : 78.8 KiB (0%)
Title : Estonian
Language : Estonian
Default : No
Forced : No

Text #10
ID : 12
Format : UTF-8
Codec ID : S_TEXT/UTF8
Codec ID/Info : UTF-8 Plain Text
Duration : 1 h 58 min
Bit rate : 93 b/s
Count of elements : 2197
Stream size : 81.0 KiB (0%)
Title : Finnish
Language : Finnish
Default : No
Forced : No

Text #11
ID : 13
Format : UTF-8
Codec ID : S_TEXT/UTF8
Codec ID/Info : UTF-8 Plain Text
Duration : 1 h 58 min
Bit rate : 98 b/s
Count of elements : 2074
Stream size : 86.0 KiB (0%)
Title : French
Language : French
Default : No
Forced : No

Text #12
ID : 14
Format : UTF-8
Codec ID : S_TEXT/UTF8
Codec ID/Info : UTF-8 Plain Text
Duration : 1 h 58 min
Bit rate : 98 b/s
Count of elements : 2075
Stream size : 86.0 KiB (0%)
Title : French Canadian
Language : French
Default : No
Forced : No

Text #13
ID : 15
Format : UTF-8
Codec ID : S_TEXT/UTF8
Codec ID/Info : UTF-8 Plain Text
Duration : 1 h 58 min
Bit rate : 98 b/s
Count of elements : 2075
Stream size : 86.0 KiB (0%)
Title : Canadian French
Language : French
Default : No
Forced : No

Text #14
ID : 16
Format : UTF-8
Codec ID : S_TEXT/UTF8
Codec ID/Info : UTF-8 Plain Text
Duration : 1 h 58 min
Bit rate : 97 b/s
Count of elements : 2197
Stream size : 84.8 KiB (0%)
Title : German
Language : German
Default : No
Forced : No

Text #15
ID : 17
Format : UTF-8
Codec ID : S_TEXT/UTF8
Codec ID/Info : UTF-8 Plain Text
Duration : 1 h 58 min
Bit rate : 169 b/s
Count of elements : 2228
Stream size : 147 KiB (0%)
Title : Greek
Language : Greek
Default : No
Forced : No

Text #16
ID : 18
Format : UTF-8
Codec ID : S_TEXT/UTF8
Codec ID/Info : UTF-8 Plain Text
Duration : 1 h 58 min
Bit rate : 144 b/s
Count of elements : 2248
Stream size : 126 KiB (0%)
Title : Hebrew
Language : Hebrew
Default : No
Forced : No

Text #17
ID : 19
Format : UTF-8
Codec ID : S_TEXT/UTF8
Codec ID/Info : UTF-8 Plain Text
Duration : 1 h 58 min
Bit rate : 268 b/s
Count of elements : 2248
Stream size : 234 KiB (0%)
Title : Hindi
Language : Hindi
Default : No
Forced : No

Text #18
ID : 20
Format : UTF-8
Codec ID : S_TEXT/UTF8
Codec ID/Info : UTF-8 Plain Text
Duration : 1 h 58 min
Bit rate : 106 b/s
Count of elements : 2174
Stream size : 93.0 KiB (0%)
Title : Hungarian
Language : Hungarian
Default : No
Forced : No

Text #19
ID : 21
Format : UTF-8
Codec ID : S_TEXT/UTF8
Codec ID/Info : UTF-8 Plain Text
Duration : 1 h 58 min
Bit rate : 97 b/s
Count of elements : 2015
Stream size : 84.8 KiB (0%)
Title : Indonesian
Language : Indonesian
Default : No
Forced : No

Text #20
ID : 22
Format : UTF-8
Codec ID : S_TEXT/UTF8
Codec ID/Info : UTF-8 Plain Text
Duration : 1 h 58 min
Bit rate : 89 b/s
Count of elements : 2066
Stream size : 77.5 KiB (0%)
Title : Italian
Language : Italian
Default : No
Forced : No

Text #21
ID : 23
Format : UTF-8
Codec ID : S_TEXT/UTF8
Codec ID/Info : UTF-8 Plain Text
Duration : 1 h 58 min
Bit rate : 83 b/s
Count of elements : 1908
Stream size : 72.5 KiB (0%)
Title : Japanese
Language : Japanese
Default : No
Forced : No

Text #22
ID : 24
Format : UTF-8
Codec ID : S_TEXT/UTF8
Codec ID/Info : UTF-8 Plain Text
Duration : 1 h 58 min
Bit rate : 102 b/s
Count of elements : 2220
Stream size : 89.3 KiB (0%)
Title : Lithuanian
Language : Lithuanian
Default : No
Forced : No

Text #23
ID : 25
Format : UTF-8
Codec ID : S_TEXT/UTF8
Codec ID/Info : UTF-8 Plain Text
Duration : 1 h 58 min
Bit rate : 105 b/s
Count of elements : 2236
Stream size : 91.9 KiB (0%)
Title : Latvian
Language : Latvian
Default : No
Forced : No

Text #24
ID : 26
Format : UTF-8
Codec ID : S_TEXT/UTF8
Codec ID/Info : UTF-8 Plain Text
Duration : 1 h 58 min
Bit rate : 106 b/s
Count of elements : 2227
Stream size : 92.8 KiB (0%)
Title : Malay
Language : Malay
Default : No
Forced : No

Text #25
ID : 27
Format : UTF-8
Codec ID : S_TEXT/UTF8
Codec ID/Info : UTF-8 Plain Text
Duration : 1 h 58 min
Bit rate : 95 b/s
Count of elements : 2244
Stream size : 83.3 KiB (0%)
Title : Simplified Chinese
Language : Chinese
Default : No
Forced : No

Text #26
ID : 28
Format : UTF-8
Codec ID : S_TEXT/UTF8
Codec ID/Info : UTF-8 Plain Text
Duration : 1 h 58 min
Bit rate : 95 b/s
Count of elements : 2246
Stream size : 83.4 KiB (0%)
Title : Traditional Chinese
Language : Chinese
Default : No
Forced : No


Text #27
ID : 29
Format : UTF-8
Codec ID : S_TEXT/UTF8
Codec ID/Info : UTF-8 Plain Text
Duration : 1 h 58 min
Bit rate : 100 b/s
Count of elements : 2246
Stream size : 87.6 KiB (0%)
Title : (Yue Chinese)
Language : Chinese
Default : No
Forced : No

Text #28
ID : 30
Format : UTF-8
Codec ID : S_TEXT/UTF8
Codec ID/Info : UTF-8 Plain Text
Duration : 1 h 58 min
Bit rate : 96 b/s
Count of elements : 2198
Stream size : 84.3 KiB (0%)
Title : Polish
Language : Polish
Default : No
Forced : No

Text #29
ID : 31
Format : UTF-8
Codec ID : S_TEXT/UTF8
Codec ID/Info : UTF-8 Plain Text
Duration : 1 h 58 min
Bit rate : 100 b/s
Count of elements : 2165
Stream size : 87.6 KiB (0%)
Title : Portuguese
Language : Portuguese
Default : No
Forced : No

Text #30
ID : 32
Format : UTF-8
Codec ID : S_TEXT/UTF8
Codec ID/Info : UTF-8 Plain Text
Duration : 1 h 58 min
Bit rate : 92 b/s
Count of elements : 2226
Stream size : 80.7 KiB (0%)
Title : Brazilian Portuguese
Language : Portuguese
Default : No
Forced : No

Text #31
ID : 33
Format : UTF-8
Codec ID : S_TEXT/UTF8
Codec ID/Info : UTF-8 Plain Text
Duration : 1 h 58 min
Bit rate : 161 b/s
Count of elements : 2238
Stream size : 140 KiB (0%)
Title : Russian
Language : Russian
Default : No
Forced : No

Text #32
ID : 34
Format : UTF-8
Codec ID : S_TEXT/UTF8
Codec ID/Info : UTF-8 Plain Text
Duration : 1 h 58 min
Bit rate : 96 b/s
Count of elements : 2229
Stream size : 84.1 KiB (0%)
Title : Slovak
Language : Slovak
Default : No
Forced : No

Text #33
ID : 35
Format : UTF-8
Codec ID : S_TEXT/UTF8
Codec ID/Info : UTF-8 Plain Text
Duration : 1 h 58 min
Bit rate : 81 b/s
Count of elements : 2108
Stream size : 70.8 KiB (0%)
Title : Slovenian
Language : Slovenian
Default : No
Forced : No

Text #34
ID : 36
Format : UTF-8
Codec ID : S_TEXT/UTF8
Codec ID/Info : UTF-8 Plain Text
Duration : 1 h 58 min
Bit rate : 96 b/s
Count of elements : 2234
Stream size : 84.2 KiB (0%)
Title : Latin America Spanish
Language : Spanish
Default : No
Forced : No

Text #35
ID : 37
Format : UTF-8
Codec ID : S_TEXT/UTF8
Codec ID/Info : UTF-8 Plain Text
Duration : 1 h 58 min
Bit rate : 106 b/s
Count of elements : 2210
Stream size : 93.0 KiB (0%)
Title : European Spanish
Language : Spanish
Default : No
Forced : No

Text #36
ID : 38
Format : UTF-8
Codec ID : S_TEXT/UTF8
Codec ID/Info : UTF-8 Plain Text
Duration : 1 h 58 min
Bit rate : 90 b/s
Count of elements : 2217
Stream size : 78.6 KiB (0%)
Title : Swedish
Language : Swedish
Default : No
Forced : No

Text #37
ID : 39
Format : UTF-8
Codec ID : S_TEXT/UTF8
Codec ID/Info : UTF-8 Plain Text
Duration : 1 h 58 min
Bit rate : 319 b/s
Count of elements : 2247
Stream size : 278 KiB (0%)
Title : Tamil
Language : Tamil
Default : No
Forced : No

Text #38
ID : 40
Format : UTF-8
Codec ID : S_TEXT/UTF8
Codec ID/Info : UTF-8 Plain Text
Duration : 1 h 58 min
Bit rate : 316 b/s
Count of elements : 2246
Stream size : 275 KiB (0%)
Title : Telugu
Language : Telugu
Default : No
Forced : No

Text #39
ID : 41
Format : UTF-8
Codec ID : S_TEXT/UTF8
Codec ID/Info : UTF-8 Plain Text
Duration : 1 h 58 min
Bit rate : 256 b/s
Count of elements : 2246
Stream size : 224 KiB (0%)
Title : Thai
Language : Thai
Default : No
Forced : No

Text #40
ID : 42
Format : UTF-8
Codec ID : S_TEXT/UTF8
Codec ID/Info : UTF-8 Plain Text
Duration : 1 h 58 min
Bit rate : 152 b/s
Count of elements : 2238
Stream size : 133 KiB (0%)
Title : Ukrainian
Language : Ukrainian
Default : No
Forced : No

Text #41
ID : 43
Format : UTF-8
Codec ID : S_TEXT/UTF8
Codec ID/Info : UTF-8 Plain Text
Duration : 1 h 58 min
Bit rate : 122 b/s
Count of elements : 2057
Stream size : 106 KiB (0%)
Title : Vietnamese
Language : Vietnamese
Default : No
Forced : No


78031990195885085240_thumb.png 30150030235076011248_thumb.png 74881557300421408085_thumb.png


游客,如果您要查看本帖隐藏内容请回复



以下为以往下载链接
游客,如果您要查看本帖隐藏内容请回复

游客,如果您要查看本帖隐藏内容请回复



.





回复

使用道具 举报

57

主题

1343

帖子

3851

积分

4K家园VIP

Rank: 9Rank: 9Rank: 9

积分
3851
发表于 2021-3-17 20:46:35 | 显示全部楼层
LZ帖子不给力,勉强给回复下吧
回复 支持 反对

使用道具 举报

0

主题

3522

帖子

9862

积分

4K家园VIP

Rank: 9Rank: 9Rank: 9

积分
9862
发表于 2021-3-17 22:17:28 | 显示全部楼层
太好啦&萬分感謝版主的無私發佈分享%
回复 支持 反对

使用道具 举报

55

主题

1449

帖子

4163

积分

4K家园VIP

Rank: 9Rank: 9Rank: 9

积分
4163
发表于 2021-3-21 19:39:45 | 显示全部楼层
锄禾日当午,发帖真辛苦。谁知坛中餐,帖帖皆辛苦!
回复 支持 反对

使用道具 举报

61

主题

1344

帖子

3910

积分

4K家园VIP

Rank: 9Rank: 9Rank: 9

积分
3910
发表于 2021-3-23 19:19:37 | 显示全部楼层
4K版的应该更清晰吧
回复 支持 反对

使用道具 举报

0

主题

38

帖子

1800

积分

注册会员

Rank: 2

积分
1800
发表于 2021-3-23 20:23:09 | 显示全部楼层
太好啦&萬分感謝版主的無私發佈分享%
回复 支持 反对

使用道具 举报

39

主题

1296

帖子

3648

积分

4K家园VIP

Rank: 9Rank: 9Rank: 9

积分
3648
发表于 2021-3-24 22:16:17 | 显示全部楼层
4K电影下个试试
回复 支持 反对

使用道具 举报

2

主题

1228

帖子

3702

积分

4K家园VIP

Rank: 9Rank: 9Rank: 9

积分
3702
发表于 2021-3-27 11:06:07 | 显示全部楼层
回复 支持 反对

使用道具 举报

您需要登录后才可以回帖 登录 | 立即注册

本版积分规则

精彩图文
Archiver|手机版|TAG|Sitemap|新帖|专题|联系我们:邮箱: 4kjia.com@gmail.com   

4k家园   ©2019