[4K记录视频] [国家地理] 布里奇特顿国家森林公园(2018)[2160P/MKV/534MB]

[复制链接]

2263

主题

2552

帖子

2万

积分

超级版主

Rank: 8Rank: 8

积分
21158
 楼主| 发表于 2021-3-27 11:30:00 | 显示全部楼层 |阅读模式

布里奇特顿国家森林公园(534.37MB)(2018)WEBRip 2160p.mkv_20210324_203715.123.j.jpg 布里奇特顿国家森林公园(534.37MB)(2018)WEBRip 2160p.mkv_20210324_203723.908.j.jpg 布里奇特顿国家森林公园(534.37MB)(2018)WEBRip 2160p.mkv_20210324_203745.787.j.jpg 布里奇特顿国家森林公园(534.37MB)(2018)WEBRip 2160p.mkv_20210324_203757.836.j.jpg 布里奇特顿国家森林公园(534.37MB)(2018)WEBRip 2160p.mkv_20210324_203812.091.j.jpg 布里奇特顿国家森林公园(534.37MB)(2018)WEBRip 2160p.mkv_20210324_203822.211.j.jpg


General
Complete name                  : 国家地理\布里奇特顿国家森林公园(534.37MB)(2018)WEBRip 2160p.mkv
Format                         : Matroska
Format version                 : Version 4
File size                      : 535 MiB
Duration                       : 3 min 24 s
Overall bit rate               : 21.9 Mb/s
Encoded date                   : UTC 2021-02-08 19:08:53
Writing application            : mkvmerge v53.0.0 ('Fool's Gold') 64-bit
Writing library                : libebml v1.4.1 + libmatroska v1.6.2

Video
ID                             : 1
Format                         : AVC
Format/Info                    : Advanced Video Codec
Format profile                 : High@L5.2
Format settings                : CABAC / 5 Ref Frames
Format settings, CABAC         : Yes
Format settings, Reference fra : 5 frames
Codec ID                       : V_MPEG4/ISO/AVC
Duration                       : 3 min 24 s
Bit rate                       : 22.0 Mb/s
Width                          : 3 840 pixels
Height                         : 2 160 pixels
Display aspect ratio           : 16:9
Frame rate mode                : Constant
Frame rate                     : 23.976 (24000/1001) FPS
Color space                    : YUV
Chroma subsampling             : 4:2:0
Bit depth                      : 8 bits
Scan type                      : Progressive
Bits/(Pixel*Frame)             : 0.111
Stream size                    : 531 MiB (99%)
Writing library                : x264 core 157 r10M 303c484
Encoding settings              : cabac=1 / ref=5 / deblock=1:0:0 / analyse=0x3:0x113 / me=hex / subme=8 / psy=1 / psy_rd=1.00:0.00 / mixed_ref=1 / me_range=16 / chroma_me=1 / trellis=2 / 8x8dct=1 / cqm=0 / deadzone=21,11 / fast_pskip=1 / chroma_qp_offset=-2 / threads=48 / lookahead_threads=8 / sliced_threads=0 / nr=0 / decimate=1 / interlaced=0 / bluray_compat=0 / stitchable=1 / constrained_intra=0 / bframes=3 / b_pyramid=2 / b_adapt=2 / b_bias=0 / direct=3 / weightb=1 / open_gop=0 / weightp=2 / keyint=infinite / keyint_min=23 / scenecut=40 / intra_refresh=0 / rc_lookahead=50 / rc=2pass / mbtree=1 / bitrate=22000 / ratetol=1.0 / qcomp=0.60 / qpmin=5 / qpmax=69 / qpstep=4 / cplxblur=20.0 / qblur=0.5 / vbv_maxrate=24200 / vbv_bufsize=66000 / nal_hrd=none / filler=0 / ip_ratio=1.40 / aq=1:1.00
Default                        : Yes
Forced                         : No
Color range                    : Limited
Color primaries                : BT.709
Transfer characteristics       : BT.709
Matrix coefficients            : BT.709

Audio
ID                             : 2
Format                         : AAC LC
Format/Info                    : Advanced Audio Codec Low Complexity
Codec ID                       : A_AAC-2
Duration                       : 3 min 24 s
Bit rate                       : 137 kb/s
Channel(s)                     : 2 channels
Channel layout                 : L R
Sampling rate                  : 48.0 kHz
Frame rate                     : 46.875 FPS (1024 SPF)
Compression mode               : Lossy
Stream size                    : 3.34 MiB (1%)
Default                        : Yes
Forced                         : No



布里奇特顿国家森林公园(534.37MB)(2018)WEBRip 2160p.torrent (11.48 KB, 售价: 15 金币)
回复

使用道具 举报

0

主题

1197

帖子

3601

积分

4K家园VIP

Rank: 9Rank: 9Rank: 9

积分
3601
发表于 2021-3-27 11:30:05 | 显示全部楼层
支持一下楼主,顶起来
回复 支持 反对

使用道具 举报

0

主题

3522

帖子

9862

积分

4K家园VIP

Rank: 9Rank: 9Rank: 9

积分
9862
发表于 2021-3-27 11:41:54 | 显示全部楼层
布里奇特顿国家森林公园4k
回复 支持 反对

使用道具 举报

0

主题

418

帖子

1432

积分

注册会员

Rank: 2

积分
1432
发表于 2021-3-31 22:04:32 | 显示全部楼层
感谢楼主分享
回复 支持 反对

使用道具 举报

39

主题

1368

帖子

3896

积分

4K家园VIP

Rank: 9Rank: 9Rank: 9

积分
3896
发表于 4 天前 | 显示全部楼层
高手啊
回复 支持 反对

使用道具 举报

您需要登录后才可以回帖 登录 | 立即注册

本版积分规则

精彩图文
Archiver|手机版|TAG|Sitemap|新帖|专题|联系我们:邮箱: 4kjia.com@gmail.com   

4k家园   ©2019