[4K记录视频] [国家地理] 埃塞俄比亚-文明的摇篮(2018)[2160P/MKV/438MB]

[复制链接]

2263

主题

2552

帖子

2万

积分

超级版主

Rank: 8Rank: 8

积分
21158
 楼主| 发表于 2021-3-28 12:00:00 | 显示全部楼层 |阅读模式

埃塞俄比亚-文明的摇篮(438.19MB)(2018)WEBRip 2160p.mkv_20210324_204339.556.jp.jpg 埃塞俄比亚-文明的摇篮(438.19MB)(2018)WEBRip 2160p.mkv_20210324_204350.996.jp.jpg 埃塞俄比亚-文明的摇篮(438.19MB)(2018)WEBRip 2160p.mkv_20210324_204407.788.jp.jpg 埃塞俄比亚-文明的摇篮(438.19MB)(2018)WEBRip 2160p.mkv_20210324_204428.355.jp.jpg 埃塞俄比亚-文明的摇篮(438.19MB)(2018)WEBRip 2160p.mkv_20210324_204437.579.jp.jpg 埃塞俄比亚-文明的摇篮(438.19MB)(2018)WEBRip 2160p.mkv_20210324_204444.781.jp.jpg

有关信息
标题:埃塞俄比亚-文明的摇篮
发行年: 2018
国家/地区:埃塞俄比亚
持续时间: 00 : 02 : 40
类型: 种类
导演:杰夫·科洪

关于电影:

        这是在埃塞俄比亚度过的两个星期的亮点。


General
Complete name                  : 国家地理\埃塞俄比亚-文明的摇篮(438.19MB)(2018)WEBRip 2160p.mkv
Format                         : Matroska
Format version                 : Version 4
File size                      : 438 MiB
Duration                       : 2 min 40 s
Overall bit rate               : 22.9 Mb/s
Encoded date                   : UTC 2021-02-17 07:31:59
Writing application            : mkvmerge v53.0.0 ('Fool's Gold') 64-bit
Writing library                : libebml v1.4.1 + libmatroska v1.6.2

Video
ID                             : 1
Format                         : AVC
Format/Info                    : Advanced Video Codec
Format profile                 : High@L5.2
Format settings                : CABAC / 5 Ref Frames
Format settings, CABAC         : Yes
Format settings, Reference fra : 5 frames
Codec ID                       : V_MPEG4/ISO/AVC
Duration                       : 2 min 40 s
Bit rate                       : 22.8 Mb/s
Width                          : 3 840 pixels
Height                         : 2 160 pixels
Display aspect ratio           : 16:9
Frame rate mode                : Constant
Frame rate                     : 29.970 FPS
Color space                    : YUV
Chroma subsampling             : 4:2:0
Bit depth                      : 8 bits
Scan type                      : Progressive
Bits/(Pixel*Frame)             : 0.092
Stream size                    : 436 MiB (99%)
Writing library                : x264 core 157 r10 545de2f
Encoding settings              : cabac=1 / ref=5 / deblock=1:0:0 / analyse=0x3:0x113 / me=hex / subme=8 / psy=1 / psy_rd=1.00:0.00 / mixed_ref=1 / me_range=16 / chroma_me=1 / trellis=2 / 8x8dct=1 / cqm=0 / deadzone=21,11 / fast_pskip=1 / chroma_qp_offset=-2 / threads=48 / lookahead_threads=8 / sliced_threads=0 / nr=0 / decimate=1 / interlaced=0 / bluray_compat=0 / stitchable=1 / constrained_intra=0 / bframes=3 / b_pyramid=2 / b_adapt=2 / b_bias=0 / direct=3 / weightb=1 / open_gop=0 / weightp=2 / keyint=infinite / keyint_min=29 / scenecut=40 / intra_refresh=0 / rc_lookahead=50 / rc=crf / mbtree=1 / crf=20.0 / qcomp=0.60 / qpmin=5 / qpmax=69 / qpstep=4 / vbv_maxrate=24200 / vbv_bufsize=66000 / crf_max=0.0 / nal_hrd=none / filler=0 / ip_ratio=1.40 / aq=1:1.00
Default                        : Yes
Forced                         : No
Color range                    : Limited
Color primaries                : BT.709
Transfer characteristics       : BT.709
Matrix coefficients            : BT.709

Audio
ID                             : 2
Format                         : AAC LC
Format/Info                    : Advanced Audio Codec Low Complexity
Codec ID                       : A_AAC-2
Duration                       : 2 min 40 s
Bit rate                       : 137 kb/s
Channel(s)                     : 2 channels
Channel layout                 : L R
Sampling rate                  : 48.0 kHz
Frame rate                     : 46.875 FPS (1024 SPF)
Compression mode               : Lossy
Stream size                    : 2.62 MiB (1%)
Default                        : Yes
Forced                         : No




埃塞俄比亚-文明的摇篮(438.19MB)(2018)WEBRip 2160p.torrent (18.16 KB, 售价: 15 金币)
回复

使用道具 举报

46

主题

1392

帖子

3954

积分

4K家园VIP

Rank: 9Rank: 9Rank: 9

积分
3954
发表于 2021-3-28 12:00:07 | 显示全部楼层
介是神马?!!
回复 支持 反对

使用道具 举报

0

主题

3520

帖子

9860

积分

4K家园VIP

Rank: 9Rank: 9Rank: 9

积分
9860
发表于 2021-3-28 12:02:03 | 显示全部楼层
太好啦&萬分感謝版主的無私發佈分享%
回复 支持 反对

使用道具 举报

0

主题

399

帖子

1419

积分

注册会员

Rank: 2

积分
1419
发表于 2021-3-29 09:36:32 | 显示全部楼层
帖帖皆辛苦
回复 支持 反对

使用道具 举报

0

主题

418

帖子

1432

积分

注册会员

Rank: 2

积分
1432
发表于 2021-3-30 21:35:26 | 显示全部楼层
感谢楼主分享
回复 支持 反对

使用道具 举报

0

主题

418

帖子

1432

积分

注册会员

Rank: 2

积分
1432
发表于 2021-3-31 22:01:49 | 显示全部楼层
感谢楼主分享
回复 支持 反对

使用道具 举报

1

主题

1263

帖子

3803

积分

4K家园VIP

Rank: 9Rank: 9Rank: 9

积分
3803
发表于 2021-4-1 06:50:55 | 显示全部楼层
为了三千积分!
回复 支持 反对

使用道具 举报

0

主题

8

帖子

51

积分

新手上路

Rank: 1

积分
51
发表于 2021-4-1 08:58:01 来自手机 | 显示全部楼层
最喜欢纪录片
回复 支持 反对

使用道具 举报

0

主题

1178

帖子

3546

积分

4K家园VIP

Rank: 9Rank: 9Rank: 9

积分
3546
发表于 2021-4-2 05:25:41 | 显示全部楼层
LZ是天才,坚定完毕
回复 支持 反对

使用道具 举报

1

主题

1518

帖子

4094

积分

4K家园VIP

Rank: 9Rank: 9Rank: 9

积分
4094
发表于 5 天前 | 显示全部楼层
高手云集 果断围观
回复 支持 反对

使用道具 举报

您需要登录后才可以回帖 登录 | 立即注册

本版积分规则

精彩图文
Archiver|手机版|TAG|Sitemap|新帖|专题|联系我们:邮箱: 4kjia.com@gmail.com   

4k家园   ©2019