[4K记录视频] [国家地理] 红木海岸国家公园(2021)[2160P/MKV/574MB]

[复制链接]

2275

主题

2564

帖子

2万

积分

超级版主

Rank: 8Rank: 8

积分
21305
 楼主| 发表于 2021-4-3 11:30:00 | 显示全部楼层 |阅读模式

红木海岸(574MB)(2021)WEBRip 2160p.mkv_20210324_212027.693.jpg 红木海岸(574MB)(2021)WEBRip 2160p.mkv_20210324_212037.767.jpg 红木海岸(574MB)(2021)WEBRip 2160p.mkv_20210324_212052.812.jpg 红木海岸(574MB)(2021)WEBRip 2160p.mkv_20210324_212101.701.jpg 红木海岸(574MB)(2021)WEBRip 2160p.mkv_20210324_212109.557.jpg 红木海岸(574MB)(2021)WEBRip 2160p.mkv_20210324_212155.468.jpg

电影信息
标题: 红木海岸国家公园
发行: 2021年
国家/地区:美国
时长: 00 : 03 : 56
类型: 种类
导演: Rudy Wilms

关于电影:

           我们最喜欢的国家公园之一,不仅拥有世界上最美丽的森林,而且还有令人惊叹的海岸线,不得不拍摄这段视频来展示壮丽的红木海岸。

General
Complete name                  : 国家地理\红木海岸国家公园(574MB)(2021)WEBRip 2160p.mkv
Format                         : Matroska
Format version                 : Version 4
File size                      : 575 MiB
Duration                       : 3 min 56 s
Overall bit rate               : 20.4 Mb/s
Encoded date                   : UTC 2021-03-23 18:18:32
Writing application            : mkvmerge v55.0.0 ('Waiting For Space') 64-bit
Writing library                : libebml v1.4.2 + libmatroska v1.6.4

Video
ID                             : 1
Format                         : AVC
Format/Info                    : Advanced Video Codec
Format profile                 : High@L5.2
Format settings                : CABAC / 5 Ref Frames
Format settings, CABAC         : Yes
Format settings, Reference fra : 5 frames
Codec ID                       : V_MPEG4/ISO/AVC
Duration                       : 3 min 56 s
Bit rate                       : 20.2 Mb/s
Width                          : 3 840 pixels
Height                         : 1 636 pixels
Display aspect ratio           : 2.35:1
Frame rate mode                : Constant
Frame rate                     : 23.976 (24000/1001) FPS
Color space                    : YUV
Chroma subsampling             : 4:2:0
Bit depth                      : 8 bits
Scan type                      : Progressive
Bits/(Pixel*Frame)             : 0.134
Stream size                    : 568 MiB (99%)
Writing library                : x264 core 161 r10 b86ae3c
Encoding settings              : cabac=1 / ref=5 / deblock=1:0:0 / analyse=0x3:0x113 / me=hex / subme=8 / psy=1 / psy_rd=1.00:0.00 / mixed_ref=1 / me_range=16 / chroma_me=1 / trellis=2 / 8x8dct=1 / cqm=0 / deadzone=21,11 / fast_pskip=1 / chroma_qp_offset=-2 / threads=48 / lookahead_threads=8 / sliced_threads=0 / nr=0 / decimate=1 / interlaced=0 / bluray_compat=0 / stitchable=1 / constrained_intra=0 / bframes=3 / b_pyramid=2 / b_adapt=2 / b_bias=0 / direct=3 / weightb=1 / open_gop=0 / weightp=2 / keyint=infinite / keyint_min=23 / scenecut=40 / intra_refresh=0 / rc_lookahead=50 / rc=crf / mbtree=1 / crf=20.0 / qcomp=0.60 / qpmin=5 / qpmax=69 / qpstep=4 / vbv_maxrate=24200 / vbv_bufsize=66000 / crf_max=0.0 / nal_hrd=none / filler=0 / ip_ratio=1.40 / aq=1:1.00
Default                        : Yes
Forced                         : No
Color range                    : Limited
Color primaries                : BT.709
Transfer characteristics       : BT.709
Matrix coefficients            : BT.709

Audio
ID                             : 2
Format                         : AAC LC
Format/Info                    : Advanced Audio Codec Low Complexity
Codec ID                       : A_AAC-2
Duration                       : 3 min 56 s
Bit rate                       : 253 kb/s
Channel(s)                     : 2 channels
Channel layout                 : L R
Sampling rate                  : 48.0 kHz
Frame rate                     : 46.875 FPS (1024 SPF)
Compression mode               : Lossy
Stream size                    : 7.14 MiB (1%)
Default                        : Yes
Forced                         : No



红木海岸国家公园(574MB)(2021)WEBRip 2160p.torrent (12.24 KB, 售价: 9 金币)
回复

使用道具 举报

49

主题

1286

帖子

3690

积分

4K家园VIP

Rank: 9Rank: 9Rank: 9

积分
3690
发表于 2021-4-3 11:30:08 | 显示全部楼层
没明白
回复 支持 反对

使用道具 举报

0

主题

3689

帖子

1万

积分

4K家园VIP

Rank: 9Rank: 9Rank: 9

积分
10136
发表于 2021-4-3 11:50:47 | 显示全部楼层
美国红木海岸国家公园4k
回复 支持 反对

使用道具 举报

40

主题

1367

帖子

3863

积分

4K家园VIP

Rank: 9Rank: 9Rank: 9

积分
3863
发表于 2021-4-8 06:23:47 来自手机 | 显示全部楼层
高手云集 果断围观
回复 支持 反对

使用道具 举报

0

主题

442

帖子

1522

积分

注册会员

Rank: 2

积分
1522
发表于 2021-4-10 22:38:07 | 显示全部楼层
谢谢楼主分享
回复 支持 反对

使用道具 举报

48

主题

1377

帖子

3953

积分

4K家园VIP

Rank: 9Rank: 9Rank: 9

积分
3953
发表于 6 天前 | 显示全部楼层
纯粹路过,没任何兴趣,仅仅是看在老用户份上回复一下
回复 支持 反对

使用道具 举报

50

主题

1323

帖子

3779

积分

4K家园VIP

Rank: 9Rank: 9Rank: 9

积分
3779
发表于 4 天前 | 显示全部楼层
秀起来~
回复 支持 反对

使用道具 举报

您需要登录后才可以回帖 登录 | 立即注册

本版积分规则

精彩图文
Archiver|手机版|TAG|Sitemap|新帖|专题|联系我们:邮箱: 4kjia.com@gmail.com   

4k家园   ©2019