[4K MV] 2021 aespa - 永远 4k [2160P /MP4/489MB]

[复制链接]

2263

主题

2552

帖子

2万

积分

超级版主

Rank: 8Rank: 8

积分
21158
 楼主| 发表于 2021-3-26 13:57:54 | 显示全部楼层 |阅读模式
本帖最后由 叽里呱啦 于 2021-3-29 09:42 编辑

aespa - 永远 4k.mp4_20210326_135003.962.jpg aespa - 永远 4k.mp4_20210326_135012.817.jpg aespa - 永远 4k.mp4_20210326_135020.506.jpg aespa - 永远 4k.mp4_20210326_135027.508.jpg aespa - 永远 4k.mp4_20210326_135036.066.jpg aespa - 永远 4k.mp4_20210326_135043.281.jpg

General
Complete name                  : MV\aespa - 永远 4k.mp4
Format                         : MPEG-4
Format profile                 : Base Media
Codec ID                       : isom (isom/iso2/avc1/mp41)
File size                      : 490 MiB
Duration                       : 5 min 6 s
Overall bit rate               : 13.4 Mb/s
Writing application            : Lavf58.12.100
exvr                           : EX1.8.2(C1.0.9)

Video
ID                             : 1
Format                         : AVC
Format/Info                    : Advanced Video Codec
Format profile                 : High@L5.1
Format settings                : CABAC / 4 Ref Frames
Format settings, CABAC         : Yes
Format settings, Reference fra : 4 frames
Codec ID                       : avc1
Codec ID/Info                  : Advanced Video Coding
Duration                       : 5 min 6 s
Bit rate                       : 13.2 Mb/s
Width                          : 3 840 pixels
Height                         : 2 160 pixels
Display aspect ratio           : 16:9
Frame rate mode                : Constant
Frame rate                     : 23.976 (23976/1000) FPS
Color space                    : YUV
Chroma subsampling             : 4:2:0
Bit depth                      : 8 bits
Scan type                      : Progressive
Bits/(Pixel*Frame)             : 0.066
Stream size                    : 482 MiB (99%)
Color range                    : Limited
Color primaries                : BT.709
Transfer characteristics       : BT.709
Matrix coefficients            : BT.709
Codec configuration box        : avcC

Audio
ID                             : 2
Format                         : AAC LC
Format/Info                    : Advanced Audio Codec Low Complexity
Codec ID                       : mp4a-40-2
Duration                       : 5 min 6 s
Duration_LastFrame             : -1 ms
Bit rate mode                  : Constant
Bit rate                       : 192 kb/s
Channel(s)                     : 2 channels
Channel layout                 : L R
Sampling rate                  : 48.0 kHz
Frame rate                     : 46.875 FPS (1024 SPF)
Compression mode               : Lossy
Stream size                    : 7.01 MiB (1%)
Default                        : Yes
Alternate group                : 1


提供更多(4K、8K)高品质MV、演示片等珍藏版视频,需要的联系本楼主。

网盘下载失效不补:链接: https://pan.baidu.com/s/1-EezcTmZheaLFl0smpkQVA 提取码:
****此区域为收费内容****    需支付 15 金币后可查看立即购买




.
回复

使用道具 举报

0

主题

1187

帖子

3577

积分

4K家园VIP

Rank: 9Rank: 9Rank: 9

积分
3577
发表于 2021-3-26 13:58:01 | 显示全部楼层
沙发位出租,
回复 支持 反对

使用道具 举报

40

主题

1366

帖子

3860

积分

4K家园VIP

Rank: 9Rank: 9Rank: 9

积分
3860
发表于 2021-3-26 13:58:01 | 显示全部楼层
楼猪辛苦了,支持一下分享好资源
回复 支持 反对

使用道具 举报

1

主题

1202

帖子

3438

积分

4K家园VIP

Rank: 9Rank: 9Rank: 9

积分
3438
发表于 2021-3-26 13:58:01 | 显示全部楼层
感谢楼主的分享,还是阔以滴
回复 支持 反对

使用道具 举报

0

主题

1207

帖子

3637

积分

4K家园VIP

Rank: 9Rank: 9Rank: 9

积分
3637
发表于 2021-3-28 19:41:07 | 显示全部楼层
LZ敢整点更有创意的不?兄弟们等着围观捏~
回复 支持 反对

使用道具 举报

37

主题

1353

帖子

3859

积分

4K家园VIP

Rank: 9Rank: 9Rank: 9

积分
3859
发表于 2021-3-30 13:00:18 | 显示全部楼层
顶顶更健康
回复 支持 反对

使用道具 举报

您需要登录后才可以回帖 登录 | 立即注册

本版积分规则

精彩图文
Archiver|手机版|TAG|Sitemap|新帖|专题|联系我们:邮箱: 4kjia.com@gmail.com   

4k家园   ©2019