[4K电影] [4K首发资源]女生要革命/Moxie(2021)4K高清下载/大小14.00GB

[复制链接]

411

主题

425

帖子

4095

积分

4K家园VIP

Rank: 9Rank: 9Rank: 9

积分
4095
 楼主| 发表于 2021-3-31 10:38:59 | 显示全部楼层 |阅读模式
本帖最后由 最爱4K哟 于 2021-3-31 12:27 编辑

p2632073118.webp_副本.jpg

◎译  名 女生要革命/勇气
◎片  名 Moxie
◎年  代 2021
◎产  地 美国
◎类  别 剧情 / 喜剧 / 音乐
◎语  言 英语
◎上映日期 2021-03-03(美国)
◎IMDb链接 https://www.imdb.com/title/tt6432466/
◎豆瓣评分 8.2/10 from 78 users
◎豆瓣链接 https://movie.douban.com/subject/30465068/
◎片  长 111分钟
◎导  演 艾米·波勒 Amy Poehler
◎主  演 哈德莉·罗宾逊 Hadley Robinson
      艾米·波勒 Amy Poehler
      劳伦·蔡 Lauren Tsai
      马西娅·盖伊·哈登 Marcia Gay Harden
      J·J·托塔 J.J. Totah
      伊克·巴里霍尔兹 Ike Barinholtz
      约瑟芬·兰福德 Josephine Langford
      克拉克·格雷格 Clark Gregg
      帕特里克·施瓦辛格 Patrick Schwarzenegger
      西德尼·帕克 Sydney Park
      凯文·多尔夫 Kevin Dorff
      安杰利卡·华盛顿 Anjelika Washington
      尼科·希拉加 Nico Hiraga
      布兰迪·赖特 Brady Reiter
      亚伦·霍利戴 Aaron Holliday
      维克托·沃尔夫 Victor Wolf
      斯嘉丽特·米尔罗尼 Starlette Miariaunii


◎简  介

  影片根据珍妮弗·马修利同名小说改编,由Tamara Chestna操刀剧本,讲述16岁小镇女孩(罗宾逊饰)的母亲原来是地下朋克女性主义运动“暴女”成员,女孩受到母亲的影响在自己的高中开启了一场运动。施瓦辛格饰演学校里英俊的运动员,在过去有黑暗秘密的他极力反对这场“勇气”运动。该片现在洛杉矶拍摄中。


General
Complete name                  :女生要革命(14.00GB)Moxie.2021.HDR.2160p.WEBRip.x265-iNTENSO[TGx]
Format                         : Matroska
Format version                 : Version 4
File size                      : 14.0 GiB
Duration                       : 1 h 51 min
Overall bit rate               : 17.9 Mb/s
Encoded date                   : UTC 2021-03-19 19:35:10
Writing application            : mkvmerge v8.2.0 ('World of Adventure') 64bit
Writing library                : libebml v1.3.1 + libmatroska v1.4.2

Video
ID                             : 1
Format                         : HEVC
Format/Info                    : High Efficiency Video Coding
Format profile                 : Main 10@L5.1@High
HDR format                     : SMPTE ST 2086, HDR10 compatible
Codec ID                       : V_MPEGH/ISO/HEVC
Duration                       : 1 h 51 min
Bit rate                       : 16.9 Mb/s
Width                          : 3 840 pixels
Height                         : 1 920 pixels
Display aspect ratio           : 2.000
Frame rate mode                : Constant
Frame rate                     : 24.000 FPS
Color space                    : YUV
Chroma subsampling             : 4:2:0 (Type 2)
Bit depth                      : 10 bits
Bits/(Pixel*Frame)             : 0.096
Stream size                    : 13.2 GiB (94%)
Writing library                : x265 3.4+2-73ca1d7be377:[Windows][GCC 10.2.1][64 bit] 10bit
Encoding settings              : cpuid=1111039 / frame-threads=4 / numa-pools=16 / wpp / no-pmode / no-pme / no-psnr / no-ssim / log-level=2 / input-csp=1 / input-res=3840x1920 / interlace=0 / total-frames=0 / level-idc=51 / high-tier=1 / uhd-bd=0 / ref=4 / no-allow-non-conformance / repeat-headers / annexb / no-aud / no-hrd / info / hash=0 / no-temporal-layers / no-open-gop / min-keyint=24 / keyint=250 / gop-lookahead=0 / bframes=3 / b-adapt=2 / b-pyramid / bframe-bias=0 / rc-lookahead=20 / lookahead-slices=8 / scenecut=40 / hist-scenecut=0 / radl=0 / no-splice / no-intra-refresh / ctu=64 / min-cu-size=8 / no-rect / no-amp / max-tu-size=32 / tu-inter-depth=1 / tu-intra-depth=1 / limit-tu=0 / rdoq-level=0 / dynamic-rd=0.00 / no-ssim-rd / signhide / no-tskip / nr-intra=0 / nr-inter=0 / no-constrained-intra / no-strong-intra-smoothing / max-merge=3 / limit-refs=1 / no-limit-modes / me=1 / subme=2 / merange=57 / temporal-mvp / no-frame-dup / no-hme / weightp / no-weightb / no-analyze-src-pics / deblock=-3:-3 / no-sao / no-sao-non-deblock / rd=3 / selective-sao=0 / early-skip / rskip / no-fast-intra / no-tskip-fast / no-cu-lossless / b-intra / no-splitrd-skip / rdpenalty=0 / psy-rd=2.00 / psy-rdoq=0.00 / no-rd-refine / no-lossless / cbqpoffs=0 / crqpoffs=0 / rc=crf / crf=17.0 / qcomp=0.60 / qpstep=4 / stats-write=0 / stats-read=0 / vbv-maxrate=160000 / vbv-bufsize=160000 / vbv-init=0.9 / crf-max=0.0 / crf-min=0.0 / ipratio=1.40 / pbratio=1.30 / aq-mode=2 / aq-strength=1.00 / no-cutree / zone-count=0 / no-strict-cbr / qg-size=32 / no-rc-grain / qpmax=69 / qpmin=0 / no-const-vbv / sar=0 / overscan=0 / videoformat=5 / range=0 / colorprim=9 / transfer=16 / colormatrix=9 / chromaloc=1 / chromaloc-top=2 / chromaloc-bottom=2 / display-window=0 / master-display=G(13250,34500)B(7500,3000)R(34000,16000)WP(15635,16450)L(10000000,1) / cll=9911,98 / min-luma=0 / max-luma=1023 / log2-max-poc-lsb=8 / vui-timing-info / vui-hrd-info / slices=1 / no-opt-qp-pps / no-opt-ref-list-length-pps / no-multi-pass-opt-rps / scenecut-bias=0.05 / hist-threshold=0.01 / no-opt-cu-delta-qp / no-aq-motion / hdr10 / hdr10-opt / no-dhdr10-opt / no-idr-recovery-sei / analysis-reuse-level=0 / analysis-save-reuse-level=0 / analysis-load-reuse-level=0 / scale-factor=0 / refine-intra=0 / refine-inter=0 / refine-mv=1 / refine-ctu-distortion=0 / no-limit-sao / ctu-info=0 / no-lowpass-dct / refine-analysis-type=0 / copy-pic=1 / max-ausize-factor=1.0 / no-dynamic-refine / no-single-sei / no-hevc-aq / no-svt / no-field / qp-adaptation-range=1.00 / no-scenecut-aware-qpconformance-window-offsets / right=0 / bottom=0 / decoder-max-rate=0
Language                       : English
Default                        : Yes
Forced                         : No
Color range                    : Limited
Color primaries                : BT.2020
Transfer characteristics       : PQ
Matrix coefficients            : BT.2020 non-constant
Mastering display color primar : Display P3
Mastering display luminance    : min: 0.0001 cd/m2, max: 1000 cd/m2
Maximum Content Light Level    : 9911 cd/m2
Maximum Frame-Average Light Le : 98 cd/m2

Audio
ID                             : 2
Format                         : E-AC-3
Format/Info                    : Enhanced AC-3
Commercial name                : Dolby Digital Plus
Codec ID                       : A_EAC3
Duration                       : 1 h 51 min
Bit rate mode                  : Constant
Bit rate                       : 640 kb/s
Channel(s)                     : 6 channels
Channel layout                 : L R C LFE Ls Rs
Sampling rate                  : 48.0 kHz
Frame rate                     : 31.250 FPS (1536 SPF)
Compression mode               : Lossy
Delay relative to video        : 26 ms
Stream size                    : 511 MiB (4%)
Title                          : ENG E-AC3 5.1 640kbit
Language                       : English
Service kind                   : Complete Main
Default                        : No
Forced                         : No

Text
ID                             : 3
Format                         : UTF-8
Codec ID                       : S_TEXT/UTF8
Codec ID/Info                  : UTF-8 Plain Text
Language                       : English
Default                        : No
Forced                         : No


Moxie.2021.HDR.2160p.WEBRip.x265-iNTENSO.mkv_20210331_102250.717.jpg Moxie.2021.HDR.2160p.WEBRip.x265-iNTENSO.mkv_20210331_102803.452.jpg Moxie.2021.HDR.2160p.WEBRip.x265-iNTENSO.mkv_20210331_102813.220.jpg Moxie.2021.HDR.2160p.WEBRip.x265-iNTENSO.mkv_20210331_102837.108.jpg Moxie.2021.HDR.2160p.WEBRip.x265-iNTENSO.mkv_20210331_102901.766.jpg Moxie.2021.HDR.2160p.WEBRip.x265-iNTENSO.mkv_20210331_102919.868.jpg



游客,如果您要查看本帖隐藏内容请回复




.
回复

使用道具 举报

46

主题

1296

帖子

3716

积分

4K家园VIP

Rank: 9Rank: 9Rank: 9

积分
3716
发表于 2021-3-31 10:42:16 | 显示全部楼层
支持,赞一个
回复 支持 反对

使用道具 举报

47

主题

1437

帖子

4121

积分

4K家园VIP

Rank: 9Rank: 9Rank: 9

积分
4121
发表于 2021-3-31 10:42:16 | 显示全部楼层
好像还可以
回复 支持 反对

使用道具 举报

0

主题

3521

帖子

9861

积分

4K家园VIP

Rank: 9Rank: 9Rank: 9

积分
9861
发表于 2021-3-31 10:57:00 | 显示全部楼层
太好啦&萬分感謝版主的無私發佈分享%
回复 支持 反对

使用道具 举报

0

主题

31

帖子

4601

积分

中级会员

Rank: 4

积分
4601
发表于 2021-3-31 11:46:09 | 显示全部楼层
感谢感谢分享
回复 支持 反对

使用道具 举报

0

主题

1431

帖子

3861

积分

4K家园VIP

Rank: 9Rank: 9Rank: 9

积分
3861
发表于 7 天前 来自手机 | 显示全部楼层
围观 围观 沙发在哪里!!!
回复 支持 反对

使用道具 举报

0

主题

5

帖子

34

积分

新手上路

Rank: 1

积分
34
发表于 7 天前 | 显示全部楼层
HAOGAOXIN
回复

使用道具 举报

1

主题

1568

帖子

4312

积分

4K家园VIP

Rank: 9Rank: 9Rank: 9

积分
4312
发表于 6 天前 | 显示全部楼层
4K应该不错,我也下个看看
回复 支持 反对

使用道具 举报

1

主题

1198

帖子

3458

积分

4K家园VIP

Rank: 9Rank: 9Rank: 9

积分
3458
发表于 3 天前 来自手机 | 显示全部楼层
无论是不是沙发都得回复下
回复 支持 反对

使用道具 举报

您需要登录后才可以回帖 登录 | 立即注册

本版积分规则

精彩图文
Archiver|手机版|TAG|Sitemap|新帖|专题|联系我们:邮箱: 4kjia.com@gmail.com   

4k家园   ©2019