[4K电影] [4K首发资源]梦乡/末路狂奔(台)/Dreamland (2019) 4K高清下载/10.73G

[复制链接]

409

主题

423

帖子

4076

积分

4K家园VIP

Rank: 9Rank: 9Rank: 9

积分
4076
 楼主| 发表于 2021-3-31 14:42:08 | 显示全部楼层 |阅读模式

p2624590813.webp_副本.jpg

◎译  名 梦乡/末路狂奔(台)
◎片  名 Dreamland
◎年  代 2019
◎产  地 美国
◎类  别 剧情 / 惊悚
◎语  言 英语
◎上映日期 2019-04-28(翠贝卡电影节) / 2020-11-13(美国)
◎IMDb评分 5.7/10 from 2090 users
◎IMDb链接 https://www.imdb.com/title/tt5294522/
◎豆瓣评分 6.3/10 from 449 users
◎豆瓣链接 https://movie.douban.com/subject/27042286/
◎片  长 98分钟
◎导  演 迈尔斯·乔里斯-皮拉菲特 Miles Joris-Peyrafitte
◎主  演 玛格特·罗比 Margot Robbie
      崔维斯·费米尔 Travis Fimmel
      加内特·赫德兰 Garrett Hedlund
      凯瑞·康顿 Kerry Condon
      芬恩·科尔 Finn Cole
      罗拉·科克 Lola Kirke
      达比·坎普 Darby Camp
      格雷森·贝里 Grayson Berry
      布鲁斯·麦金托什 Bruce McIntosh
      保罗·布特 Paul Blott


◎简  介

  这部新片名为《梦乡》(Dreamland),由曾在圣丹斯电影节摘得评审团特别奖的导演Miles Joris-Peyrafitte执导。故事背景设定在20世纪30年代的美国,经济萧条和沙尘暴肆虐着美国的普通百姓,一个15岁的男孩为了高额的赏金开始漫漫追捕路,他的目标正是玛歌特·罗比饰演的女劫匪。


General
Complete name                  : Dreamland.2019.iTALiAN.MULTi.2160p.WEB.x265-MeM.mkv
Format                         : Matroska
Format version                 : Version 4
File size                      : 10.4 GiB
Duration                       : 1 h 41 min
Overall bit rate               : 14.7 Mb/s
Movie name                     : Dreamland.2019.iTALiAN.MULTi.2160p.WEB.x265-MeM
Encoded date                   : UTC 2021-03-28 14:20:12
Writing application            : mkvmerge v55.0.0 ('Waiting For Space') 64-bit
Writing library                : libebml v1.4.2 + libmatroska v1.6.4
IsTruncated                    : Yes

Video
ID                             : 1
Format                         : HEVC
Format/Info                    : High Efficiency Video Coding
Format profile                 : Main@L5.1@Main
Codec ID                       : V_MPEGH/ISO/HEVC
Duration                       : 1 h 41 min
Bit rate                       : 13.9 Mb/s
Width                          : 3 840 pixels
Height                         : 2 160 pixels
Display aspect ratio           : 16:9
Frame rate mode                : Constant
Frame rate                     : 23.976 (23976/1000) FPS
Color space                    : YUV
Chroma subsampling             : 4:2:0
Bit depth                      : 8 bits
Bits/(Pixel*Frame)             : 0.070
Stream size                    : 9.80 GiB (95%)
Title                          : WEB-DL
Writing library                : x265 3.4:[Linux][GCC 6.3.0][64 bit] 8bit+10bit+12bit
Encoding settings              : cpuid=1111039 / frame-threads=3 / wpp / no-pmode / no-pme / no-psnr / no-ssim / log-level=2 / input-csp=1 / input-res=3840x2160 / interlace=0 / total-frames=0 / level-idc=51 / high-tier=1 / uhd-bd=0 / ref=4 / no-allow-non-conformance / no-repeat-headers / annexb / no-aud / no-hrd / info / hash=0 / no-temporal-layers / no-open-gop / min-keyint=24 / keyint=48 / gop-lookahead=0 / bframes=3 / b-adapt=0 / no-b-pyramid / bframe-bias=0 / rc-lookahead=15 / lookahead-slices=8 / scenecut=0 / radl=0 / no-splice / no-intra-refresh / ctu=64 / min-cu-size=8 / no-rect / no-amp / max-tu-size=32 / tu-inter-depth=1 / tu-intra-depth=1 / limit-tu=0 / rdoq-level=0 / dynamic-rd=0.00 / no-ssim-rd / signhide / no-tskip / nr-intra=0 / nr-inter=0 / no-constrained-intra / strong-intra-smoothing / max-merge=2 / limit-refs=3 / no-limit-modes / me=1 / subme=2 / merange=57 / temporal-mvp / weightp / no-weightb / no-analyze-src-pics / deblock=0:0 / sao / no-sao-non-deblock / rd=2 / no-early-skip / rskip / fast-intra / no-tskip-fast / no-cu-lossless / no-b-intra / no-splitrd-skip / rdpenalty=0 / psy-rd=2.00 / psy-rdoq=0.00 / no-rd-refine / no-lossless / cbqpoffs=0 / crqpoffs=0 / rc=cbr / bitrate=14390 / qcomp=0.60 / qpstep=4 / stats-write=0 / stats-read=0 / vbv-maxrate=14390 / vbv-bufsize=28220 / vbv-init=0.9 / ipratio=1.40 / pbratio=1.30 / aq-mode=2 / aq-strength=1.00 / cutree / zone-count=0 / no-strict-cbr / qg-size=32 / no-rc-grain / qpmax=69 / qpmin=0 / no-const-vbv / sar=1 / overscan=0 / videoformat=5 / range=0 / colorprim=2 / transfer=2 / colormatrix=2 / chromaloc=0 / display-window=0 / max-cll=0,0 / min-luma=0 / max-luma=255 / log2-max-poc-lsb=8 / vui-timing-info / vui-hrd-info / slices=1 / no-opt-qp-pps / no-opt-ref-list-length-pps / no-multi-pass-opt-rps / scenecut-bias=0.05 / no-opt-cu-delta-qp / no-aq-motion / no-hdr / no-hdr-opt / no-dhdr10-opt / no-idr-recovery-sei / analysis-reuse-level=5 / scale-factor=0 / refine-intra=0 / refine-inter=0 / refine-mv=0 / refine-ctu-distortion=0 / no-limit-sao / ctu-info=0 / no-lowpass-dct / refine-analysis-type=0 / copy-pic=1 / max-ausize-factor=1.0 / no-dynamic-refine / no-single-sei / no-hevc-aq / qp-adaptation-range=1.00
Default                        : Yes
Forced                         : No

Audio #1
ID                             : 2
Format                         : E-AC-3
Format/Info                    : Enhanced AC-3
Commercial name                : Dolby Digital Plus
Codec ID                       : A_EAC3
Duration                       : 1 h 41 min
Bit rate mode                  : Constant
Bit rate                       : 256 kb/s
Channel(s)                     : 6 channels
Channel layout                 : L R C LFE Ls Rs
Sampling rate                  : 48.0 kHz
Frame rate                     : 31.250 FPS (1536 SPF)
Compression mode               : Lossy
Stream size                    : 185 MiB (2%)
Title                          : ITA EAC3 6ch @256kb/s
Language                       : Italian
Service kind                   : Complete Main
Default                        : Yes
Forced                         : No

Audio #2
ID                             : 3
Format                         : E-AC-3
Format/Info                    : Enhanced AC-3
Commercial name                : Dolby Digital Plus
Codec ID                       : A_EAC3
Duration                       : 1 h 41 min
Bit rate mode                  : Constant
Bit rate                       : 256 kb/s
Channel(s)                     : 6 channels
Channel layout                 : L R C LFE Ls Rs
Sampling rate                  : 48.0 kHz
Frame rate                     : 31.250 FPS (1536 SPF)
Compression mode               : Lossy
Stream size                    : 185 MiB (2%)
Title                          : ENG EAC3 6ch @256kb/s
Language                       : English
Service kind                   : Complete Main
Default                        : No
Forced                         : No

Text #1
ID                             : 4
Format                         : UTF-8
Codec ID                       : S_TEXT/UTF8
Codec ID/Info                  : UTF-8 Plain Text
Title                          : ITA FORCED
Language                       : Italian
Default                        : Yes
Forced                         : Yes

Text #2
ID                             : 5
Format                         : UTF-8
Codec ID                       : S_TEXT/UTF8
Codec ID/Info                  : UTF-8 Plain Text
Title                          : ENG FULL
Language                       : English
Default                        : No
Forced                         : No

Text #3
ID                             : 6
Format                         : UTF-8
Codec ID                       : S_TEXT/UTF8
Codec ID/Info                  : UTF-8 Plain Text
Title                          : ITA FULL
Language                       : Italian
Default                        : No
Forced                         : No

Menu
00:00:00.000                   : en:Chapter 01
00:04:55.545                   : en:Chapter 02
00:12:26.579                   : en:Chapter 03
00:19:46.394                   : en:Chapter 04
00:25:12.720                   : en:Chapter 05
00:32:38.832                   : en:Chapter 06
00:39:06.761                   : en:Chapter 07
00:46:05.429                   : en:Chapter 08
00:52:56.131                   : en:Chapter 09
00:58:57.200                   : en:Chapter 10
01:03:14.708                   : en:Chapter 11
01:11:29.035                   : en:Chapter 12
01:20:13.642                   : en:Chapter 13
01:27:44.926                   : en:Chapter 14
01:34:02.220                   : en:Chapter 15


Dreamland.2019.iTALiAN.MULTi.2160p.WEB.x265-MeM.mkv_20210331_140258.605.jpg Dreamland.2019.iTALiAN.MULTi.2160p.WEB.x265-MeM.mkv_20210331_140651.203.jpg Dreamland.2019.iTALiAN.MULTi.2160p.WEB.x265-MeM.mkv_20210331_143130.134.jpg

游客,如果您要查看本帖隐藏内容请回复





.
回复

使用道具 举报

1

主题

1227

帖子

3469

积分

4K家园VIP

Rank: 9Rank: 9Rank: 9

积分
3469
发表于 2021-3-31 14:42:21 | 显示全部楼层
感谢分享
回复 支持 反对

使用道具 举报

0

主题

31

帖子

4601

积分

中级会员

Rank: 4

积分
4601
发表于 2021-4-1 08:29:52 | 显示全部楼层
多谢分享啊
回复 支持 反对

使用道具 举报

0

主题

3503

帖子

9830

积分

4K家园VIP

Rank: 9Rank: 9Rank: 9

积分
9830
发表于 2021-4-1 09:07:41 | 显示全部楼层
太好啦&萬分感謝版主的無私發佈分享%
回复 支持 反对

使用道具 举报

0

主题

1

帖子

6

积分

新手上路

Rank: 1

积分
6
发表于 2021-4-1 15:42:16 | 显示全部楼层
罗比芭比傻傻分不清楚
回复 支持 反对

使用道具 举报

0

主题

7

帖子

42

积分

新手上路

Rank: 1

积分
42
发表于 4 天前 | 显示全部楼层
谢谢版主感谢版主
回复 支持 反对

使用道具 举报

1

主题

1202

帖子

3611

积分

4K家园VIP

Rank: 9Rank: 9Rank: 9

积分
3611
发表于 3 天前 | 显示全部楼层
看起来好像不错的样子
回复 支持 反对

使用道具 举报

您需要登录后才可以回帖 登录 | 立即注册

本版积分规则

精彩图文
Archiver|手机版|TAG|Sitemap|新帖|专题|联系我们:邮箱: 4kjia.com@gmail.com   

4k家园   ©2019