[4K电影] 恋恋初夏/My First Summer (2020) 4K高清下载/8.29G

[复制链接]

411

主题

425

帖子

4095

积分

4K家园VIP

Rank: 9Rank: 9Rank: 9

积分
4095
 楼主| 发表于 2021-3-31 20:43:10 | 显示全部楼层 |阅读模式
本帖最后由 最爱4K哟 于 2021-3-31 21:12 编辑

p2619927055.webp_meitu_1_副本.jpg

导演: Katie Found
编剧: Katie Found
主演: 马凯拉·卡维纳赫 / Harvey Zielinski / 埃德温娜·雷恩 / 斯蒂夫·莫察基斯 / 亚瑟·安吉尔 / 更多...
类型: 剧情
制片国家/地区: 澳大利亚
语言: 英语
上映日期: 2020-10-24(澳大利亚)
片长: 80分钟
又名: 夏日滋味


简介 · · · · · ·
  16岁的Claudia在与世隔绝的环境中长大。母亲的离世令她被困在一处偏僻的房子里,当Grace像海市蜃楼一样出现在花园里,呼吸着新鲜的甜味空气时,她感到震惊。在与母亲共处的16年里,Claudia从未真正接触过外部世界,而除了母亲,也没有任何人知道她的存在。Claudia关于人际关系的理解充满了母亲带给她的负面影响,Grace让她克服了恐惧,渐渐卸下心防。

Video
ID : 1
Format : HEVC
Format/Info : High Efficiency Video Coding
Format profile : Main@L5@High
Codec ID : V_MPEGH/ISO/HEVC
Duration : 1 h 17 min
Bit rate : 14.8 Mb/s
Width : 3 840 pixels
Height : 2 160 pixels
Display aspect ratio : 16:9
Frame rate mode : Constant
Frame rate : 24.000 FPS
Color space : YUV
Chroma subsampling : 4:2:0
Bit depth : 8 bits
Bits/(Pixel*Frame) : 0.075
Stream size : 8.08 GiB (97%)
Default : Yes
Forced : No
Color range : Limited
Color primaries : BT.709
Transfer characteristics : BT.709
Matrix coefficients : BT.709

Audio
ID : 2
Format : E-AC-3
Format/Info : Enhanced AC-3
Commercial name : Dolby Digital Plus
Codec ID : A_EAC3
Duration : 1 h 17 min
Bit rate mode : Constant
Bit rate : 384 kb/s
Channel(s) : 6 channels
Channel layout : L R C LFE Ls Rs
Sampling rate : 48.0 kHz
Frame rate : 31.250 FPS (1536 SPF)
Compression mode : Lossy
Stream size : 214 MiB (3%)
Language : English
Service kind : Complete Main
Default : Yes
Forced : No

Text
ID : 3
Format : UTF-8
Codec ID : S_TEXT/UTF8
Codec ID/Info : UTF-8 Plain Text
Duration : 1 h 17 min
Bit rate : 34 b/s
Count of elements : 812
Stream size : 19.4 KiB (0%)
Title : (SDH)
Language : English
Default : No
Forced : No

11561350225437629351_thumb.jpg 16194638348737632607_thumb.jpg 27207853172190045258_thumb.jpg


游客,如果您要查看本帖隐藏内容请回复




.


回复

使用道具 举报

57

主题

1384

帖子

4000

积分

4K家园VIP

Rank: 9Rank: 9Rank: 9

积分
4000
发表于 2021-3-31 20:50:34 | 显示全部楼层
纯粹路过,没任何兴趣,仅仅是看在老用户份上回复一下
回复 支持 反对

使用道具 举报

1

主题

1580

帖子

4348

积分

4K家园VIP

Rank: 9Rank: 9Rank: 9

积分
4348
发表于 2021-4-2 10:41:17 | 显示全部楼层
求沙发
回复 支持 反对

使用道具 举报

1

主题

1215

帖子

3661

积分

4K家园VIP

Rank: 9Rank: 9Rank: 9

积分
3661
发表于 前天 19:09 | 显示全部楼层
very good
回复 支持 反对

使用道具 举报

0

主题

1272

帖子

3622

积分

4K家园VIP

Rank: 9Rank: 9Rank: 9

积分
3622
发表于 昨天 04:43 来自手机 | 显示全部楼层
在撸一遍。。。
回复 支持 反对

使用道具 举报

您需要登录后才可以回帖 登录 | 立即注册

本版积分规则

精彩图文
Archiver|手机版|TAG|Sitemap|新帖|专题|联系我们:邮箱: 4kjia.com@gmail.com   

4k家园   ©2019