[4K电影] 圣诞星/The Star (2017) 4K高清下载/10.77GB

[复制链接]

409

主题

423

帖子

4076

积分

4K家园VIP

Rank: 9Rank: 9Rank: 9

积分
4076
 楼主| 发表于 2021-3-31 20:59:33 | 显示全部楼层 |阅读模式
本帖最后由 最爱4K哟 于 2021-3-31 21:12 编辑

p2507704509.webp_副本.jpg

◎译  名 圣诞星/羔羊
◎片  名 The Star
◎年  代 2017
◎产  地 美国
◎类  别 喜剧/动画/冒险
◎语  言 英语
◎上映日期 2017-11-17(美国)
◎IMDb评分  5.8/10 from 2,049 users
◎IMDb链接  http://www.imdb.com/title/tt4587656/
◎豆瓣评分 6.2/10 from 35 users
◎豆瓣链接 https://movie.douban.com/subject/26363276/
◎片  长 86分钟
◎导  演 蒂莫西·锐科特 Timothy Reckart
◎主  演 史蒂文·元 Steven Yeun
      科甘-迈克尔·凯 Keegan-Michael Key
      艾迪·布莱恩特 Aidy Bryant
      吉娜·罗德里格兹 Gina Rodriguez
      扎克瑞·莱维 Zachary Levi
      克里斯托弗·普卢默 Christopher Plummer
      文·瑞姆斯 Ving Rhames
      加布里埃尔·伊格莱西亚斯 Gabriel Iglesias
      凯莉·克拉克森 Kelly Clarkson
      安东尼·安德森 Anthony Anderson
      帕翠西亚·希顿 Patricia Heaton
      克里斯·克里斯托佛森 Kris Kristofferson
      克里斯汀·肯诺恩斯 Kristin Chenoweth
      玛丽亚·凯莉 Mariah Carey
      奥普拉·温弗瑞 Oprah Winfrey
      泰勒·派瑞 Tyler Perry
      崔西·摩根 Tracy Morgan
      乔尔·欧斯汀 Joel Osteen
      黛利拉 Delilah
      乔尔·麦克拉里 Joel McCrary
      菲尔·莫里斯 Phil Morris
      弗莱德·塔他斯西奥 Fred Tatasciore
      莱克斯·朗 Lex Lang
      罗杰·克莱格·史密斯 Roger Craig Smith
      乔·怀特 Joe Whyte
      威廉·汤森 William Townsend
      格雷格·白尔杰 Gregg Berger
      梅利莎·斯特姆 Melissa Sturm

◎简  介

  “The Star”只是个工作代号,并不是这部影片的正式片名。该片原名《羔羊》(The Lamb),由奥斯卡提名动画短片《头朝下的生活》(Head Over Heels)导演蒂莫西·雷克阿特(Timothy Reckart)执导,以一头勇敢的小驴子和他的动物伙伴为主角,从他们的角度描述了耶稣降生的故事。以布偶电影而著称的吉姆·汉森公司(The Jim Henson Company)和索尼动画一起制作本片。

◎获奖情况

  第75届金球奖  (2018)
  电影类 最佳原创歌曲(提名)

  第45届动画安妮奖  (2018)
  最佳剪辑(提名) 帕姆·齐根哈根
  最佳分镜(提名) 路易·德尔·卡门

Video
ID : 1
Format : HEVC
Format/Info : High Efficiency Video Coding
Format profile : Main 10@L5@Main
HDR format : SMPTE ST 2094 App 4, Version 1, HDR10+ Profile B compatible
Codec ID : V_MPEGH/ISO/HEVC
Duration : 1 h 49 min
Bit rate : 14.9 Mb/s
Width : 3 840 pixels
Height : 1 600 pixels
Display aspect ratio : 2.40:1
Frame rate mode : Constant
Frame rate : 23.976 (24000/1001) FPS
Color space : YUV
Chroma subsampling : 4:2:0
Bit depth : 10 bits
Bits/(Pixel*Frame) : 0.101
Stream size : 11.4 GiB (77%)
Default : Yes
Forced : No
Color range : Limited
Color primaries : BT.2020
Transfer characteristics : PQ
Matrix coefficients : BT.2020 non-constant
Mastering display color primaries : R: x=0.680000 y=0.320000, G: x=0.265000 y=0.690000, B: x=0.150000 y=0.060000, White point: x=0.313000 y=0.329000
Mastering display luminance : min: 0.0050 cd/m2, max: 1000 cd/m2
Maximum Content Light Level : 4000 cd/m2
Maximum Frame-Average Light Level : 673 cd/m2

Audio #1
ID : 2
Format : DTS XLL
Format/Info : Digital Theater Systems
Commercial name : DTS-HD Master Audio
Codec ID : A_DTS
Duration : 1 h 49 min
Bit rate mode : Variable
Bit rate : 3 682 kb/s
Channel(s) : 6 channels
Channel layout : C L R Ls Rs LFE
Sampling rate : 48.0 kHz
Frame rate : 93.750 FPS (512 SPF)
Bit depth : 24 bits
Compression mode : Lossless
Delay relative to video : 5 ms
Stream size : 2.82 GiB (19%)
Title : DTS-HD MA 5.1
Language : English
Default : Yes
Forced : No

Audio #2
ID : 3
Format : AC-3
Format/Info : Audio Coding 3
Commercial name : Dolby Digital
Codec ID : A_AC3
Duration : 1 h 49 min
Bit rate mode : Constant
Bit rate : 640 kb/s
Channel(s) : 6 channels
Channel layout : L R C LFE Ls Rs
Sampling rate : 48.0 kHz
Frame rate : 31.250 FPS (1536 SPF)
Compression mode : Lossy
Stream size : 503 MiB (3%)
Title : DD 5.1
Language : English
Service kind : Complete Main
Default : No
Forced : No

Text
ID : 4
Format : UTF-8
Codec ID : S_TEXT/UTF8
Codec ID/Info : UTF-8 Plain Text
Duration : 1 h 42 min
Bit rate : 81 b/s
Count of elements : 1939
Stream size : 61.0 KiB (0%)
Title : English-SRT
Language : English
Default : Yes
Forced : No

Menu
00:00:00.000 : :Chapter 01
00:10:18.492 : :Chapter 02
00:20:34.775 : :Chapter 03
00:31:17.750 : :Chapter 04
00:41:28.194 : :Chapter 05
00:52:06.832 : :Chapter 06
01:03:33.559 : :Chapter 07
01:16:21.159 : :Chapter 08
01:24:43.036 : :Chapter 09
01:32:11.817 : :Chapter 10
01:43:26.825 : :Chapter 11


18479082292573651798_thumb.jpg 69123707818752077259_thumb.jpg 92687491921745250437_thumb.jpg


游客,如果您要查看本帖隐藏内容请回复




.
回复

使用道具 举报

0

主题

1236

帖子

3570

积分

4K家园VIP

Rank: 9Rank: 9Rank: 9

积分
3570
发表于 2021-3-31 20:59:42 | 显示全部楼层
顶起顶起顶起
回复 支持 反对

使用道具 举报

0

主题

3503

帖子

9830

积分

4K家园VIP

Rank: 9Rank: 9Rank: 9

积分
9830
发表于 2021-4-1 09:06:37 | 显示全部楼层
太好啦&萬分感謝版主的無私發佈分享%
回复 支持 反对

使用道具 举报

1

主题

1580

帖子

4348

积分

4K家园VIP

Rank: 9Rank: 9Rank: 9

积分
4348
发表于 7 天前 来自手机 | 显示全部楼层
感谢楼主发帖,前排顶起
回复 支持 反对

使用道具 举报

2

主题

1521

帖子

4159

积分

4K家园VIP

Rank: 9Rank: 9Rank: 9

积分
4159
发表于 7 天前 | 显示全部楼层
没明白
回复 支持 反对

使用道具 举报

您需要登录后才可以回帖 登录 | 立即注册

本版积分规则

精彩图文
Archiver|手机版|TAG|Sitemap|新帖|专题|联系我们:邮箱: 4kjia.com@gmail.com   

4k家园   ©2019