[4K电影] 异见者 / The Dissident (2020) 4K高清版本下载/大小8.91GB

[复制链接]

411

主题

425

帖子

4095

积分

4K家园VIP

Rank: 9Rank: 9Rank: 9

积分
4095
 楼主| 发表于 2021-4-2 20:06:08 | 显示全部楼层 |阅读模式

p2619922544.webp_副本.jpg

◎译  名 异见者
◎片  名 The Dissident
◎年  代 2020
◎产  地 美国
◎类  别 惊悚 / 纪录片 / 犯罪
◎语  言 阿拉伯语,土耳其语,英语
◎上映日期 2020-01-24(圣丹斯电影节)
◎IMDb评分 7.9/10 from 9035 users
◎IMDb链接 https://www.imdb.com/title/tt11382384/
◎豆瓣评分 7.6/10 from 61 users
◎豆瓣链接 https://movie.douban.com/subject/34907418/
◎片  长 117分钟
◎导  演 布莱恩·佛格尔 Bryan Fogel
◎编  剧 布莱恩·佛格尔 Bryan Fogel / 马克·蒙雷 Mark Monroe


◎简  介

  故事聚焦2018年在伊斯坦布尔被残忍谋杀的《华盛顿邮报》记者Jamal Khashoggi。多项证据表明他极有可能是被沙特高层下达了刺杀令。

◎获奖情况

  第74届英国电影学院奖 ?(2021)
  电影奖最佳纪录片(提名)

  第73届美国编剧工会奖 ?(2021)
  电影奖最佳纪录片剧本 布莱恩·佛格尔?/?马克·蒙雷

  第25届金卫星奖 ?(2021)
  电影部门最佳纪录片(提名)
Video
ID : 1
Format : HEVC
Format/Info : High Efficiency Video Coding
Format profile : Main@L5@Main
Codec ID : V_MPEGH/ISO/HEVC
Duration : 1 h 57 min
Bit rate : 10.2 Mb/s
Width : 3 840 pixels
Height : 2 160 pixels
Display aspect ratio : 16:9
Frame rate mode : Constant
Frame rate : 23.976 (24000/1001/189150) FPS
Standard : NTSC
Color space : YUV
Chroma subsampling : 4:2:0
Bit depth : 8 bits
Bits/(Pixel*Frame) : 0.052
Stream size : 8.38 GiB (94%)
Writing library : x265 2.9_elemental9e0607aa5b6f:[Linux][GCC 4.8.5][64 bit] 8bit+10bit+12bit
Encoding settings : cpuid=1111039 / frame-threads=2 / wpp / no-pmode / no-pme / psnr / ssim / log-level=2 / csv / csv-log-level=2 / input-csp=1 / input-res=3840x2160 / interlace=0 / total-frames=0 / level-idc=50 / high-tier=1 / uhd-bd=0 / ref=5 / no-allow-non-conformance / no-repeat-headers / annexb / no-aud / no-hrd / info / hash=0 / no-temporal-layers / no-open-gop / min-keyint=61 / keyint=120 / gop-lookahead=0 / bframes=8 / b-adapt=2 / b-pyramid / bframe-bias=0 / rc-lookahead=120 / lookahead-slices=4 / scenecut=0 / radl=0 / no-intra-refresh / ctu=64 / min-cu-size=8 / rect / amp / max-tu-size=32 / tu-inter-depth=4 / tu-intra-depth=4 / limit-tu=4 / rdoq-level=2 / dynamic-rd=0.00 / no-ssim-rd / signhide / tskip / nr-intra=100 / nr-inter=600 / no-constrained-intra / strong-intra-smoothing / max-merge=3 / limit-refs=3 / limit-modes / me=3 / subme=3 / merange=57 / temporal-mvp / weightp / weightb / no-analyze-src-pics / deblock=0:0 / no-sao / no-sao-non-deblock / rd=4 / no-early-skip / no-rskip / no-fast-intra / tskip-fast / no-cu-lossless / b-intra / no-splitrd-skip / rdpenalty=0 / psy-rd=4.00 / psy-rdoq=10.00 / no-rd-refine / no-lossless / cbqpoffs=0 / crqpoffs=0 / rc=crf / crf=25.0 / qcomp=0.60 / qpstep=1 / stats-write=0 / stats-read=0 / vbv-maxrate=15000 / vbv-bufsize=20000 / vbv-init=0.9 / crf-max=0.0 / crf-min=0.0 / ipratio=1.10 / pbratio=1.00 / aq-mode=0 / aq-strength=1.50 / no-cutree / zone-count=0 / no-strict-cbr / qg-size=32 / rc-grain / qpmax=69 / qpmin=0 / const-vbv / sar=1 / overscan=0 / videoformat=2 / range=0 / colorprim=1 / transfer=1 / colormatrix=1 / chromaloc=0 / display-window=0 / max-cll=0,0 / min-luma=0 / max-luma=255 / log2-max-poc-lsb=8 / vui-timing-info / vui-hrd-info / slices=1 / opt-qp-pps / no-opt-ref-list-length-pps / no-multi-pass-opt-rps / scenecut-bias=0.05 / no-opt-cu-delta-qp / no-aq-motion / no-hdr / no-hdr-opt / no-dhdr10-opt / no-idr-recovery-sei / analysis-reuse-level=5 / scale-factor=0 / refine-intra=0 / refine-inter=0 / refine-mv=0 / no-limit-sao / ctu-info=0 / no-lowpass-dct / refine-mv-type=0 / copy-pic=1 / max-ausize-factor=1.0 / no-dynamic-refine / no-single-sei
Default : Yes
Forced : No
Color range : Limited
Color primaries : BT.709
Transfer characteristics : BT.709
Matrix coefficients : BT.709

Audio
ID : 2
Format : E-AC-3
Format/Info : Enhanced AC-3
Commercial name : Dolby Digital Plus
Codec ID : A_EAC3
Duration : 1 h 57 min
Bit rate mode : Constant
Bit rate : 640 kb/s
Channel(s) : 6 channels
Channel layout : L R C LFE Ls Rs
Sampling rate : 48.0 kHz
Frame rate : 31.250 FPS (1536 SPF)
Compression mode : Lossy
Stream size : 536 MiB (6%)
Title : English
Language : English
Service kind : Complete Main
Default : No
Forced : No

Text #1
ID : 3
Format : UTF-8
Codec ID : S_TEXT/UTF8
Codec ID/Info : UTF-8 Plain Text
Duration : 1 h 51 min
Bit rate : 56 b/s
Count of elements : 1277
Stream size : 45.8 KiB (0%)
Title : English
Language : English
Default : No
Forced : No

Text #2
ID : 4
Format : UTF-8
Codec ID : S_TEXT/UTF8
Codec ID/Info : UTF-8 Plain Text
Duration : 1 h 54 min
Bit rate : 60 b/s
Count of elements : 1437
Stream size : 50.6 KiB (0%)
Title : English [SDH]
Language : English
Default : No
Forced : No


04129547249105836137_thumb.jpg 41984883445503311003_thumb.jpg 70148094678746323868_thumb.jpg


游客,如果您要查看本帖隐藏内容请回复



.
回复

使用道具 举报

2

主题

1220

帖子

3526

积分

4K家园VIP

Rank: 9Rank: 9Rank: 9

积分
3526
发表于 2021-4-2 20:06:16 | 显示全部楼层
顶起出售广告位
回复 支持 反对

使用道具 举报

0

主题

3513

帖子

9853

积分

4K家园VIP

Rank: 9Rank: 9Rank: 9

积分
9853
发表于 2021-4-2 21:25:52 | 显示全部楼层
太好啦&萬分感謝版主的無私發佈分享%
回复 支持 反对

使用道具 举报

2

主题

1259

帖子

3627

积分

中级会员

Rank: 4

积分
3627
发表于 2021-4-3 13:59:23 来自手机 | 显示全部楼层
哈哈,我只看看不说话
回复 支持 反对

使用道具 举报

0

主题

418

帖子

1432

积分

注册会员

Rank: 2

积分
1432
发表于 2021-4-3 14:54:13 | 显示全部楼层
谢谢楼主分享
回复 支持 反对

使用道具 举报

46

主题

1296

帖子

3716

积分

4K家园VIP

Rank: 9Rank: 9Rank: 9

积分
3716
发表于 7 天前 | 显示全部楼层
好像还可以
回复 支持 反对

使用道具 举报

40

主题

1362

帖子

3882

积分

4K家园VIP

Rank: 9Rank: 9Rank: 9

积分
3882
发表于 7 天前 | 显示全部楼层
顶起出售广告位
回复 支持 反对

使用道具 举报

0

主题

45

帖子

123

积分

新手上路

Rank: 1

积分
123
发表于 4 天前 | 显示全部楼层
谢谢分享好资源!
回复 支持 反对

使用道具 举报

0

主题

2

帖子

12

积分

新手上路

Rank: 1

积分
12
发表于 4 天前 | 显示全部楼层
异见者 / The Dissident (2020)
回复 支持 反对

使用道具 举报

您需要登录后才可以回帖 登录 | 立即注册

本版积分规则

精彩图文
Archiver|手机版|TAG|Sitemap|新帖|专题|联系我们:邮箱: 4kjia.com@gmail.com   

4k家园   ©2019