[4K记录视频] [国家地理] Fagradalsfjall-冰岛火山(2021)[2160P/MKV/987MB]

[复制链接]

2275

主题

2564

帖子

2万

积分

超级版主

Rank: 8Rank: 8

积分
21305
 楼主| 发表于 2021-4-5 10:00:00 | 显示全部楼层 |阅读模式

Fagradalsfjall-冰岛火山(987MB)(2021)WEBRip 2160p.mkv_20210404_194418.035.jpg Fagradalsfjall-冰岛火山(987MB)(2021)WEBRip 2160p.mkv_20210404_194455.755.jpg Fagradalsfjall-冰岛火山(987MB)(2021)WEBRip 2160p.mkv_20210404_194504.107.jpg Fagradalsfjall-冰岛火山(987MB)(2021)WEBRip 2160p.mkv_20210404_194513.740.jpg Fagradalsfjall-冰岛火山(987MB)(2021)WEBRip 2160p.mkv_20210404_194518.987.jpg Fagradalsfjall-冰岛火山(987MB)(2021)WEBRip 2160p.mkv_20210404_194525.851.jpg

有关信息
标题: Fagradalsfjall-冰岛火山
发行年份: 2021年
时长:  09:49
类型: 种类
导演: Jakob Fors

关于电影:

       在冰岛的雷克雅内斯半岛,开始发生Fagradalsfjall火山的喷发睡了六千年



General
Complete name                  : J:\Fagradalsfjall-冰岛火山(987MB)(2021)WEBRip 2160p.mkv
Format                         : Matroska
Format version                 : Version 4
File size                      : 987 MiB
Duration                       : 9 min 49 s
Overall bit rate               : 14.0 Mb/s
Encoded date                   : UTC 2021-03-26 23:05:48
Writing application            : mkvmerge v55.0.0 ('Waiting For Space') 64-bit
Writing library                : libebml v1.4.2 + libmatroska v1.6.4 / Lavf58.29.100

Video
ID                             : 1
Format                         : VP9
Codec ID                       : V_VP9
Duration                       : 9 min 49 s
Bit rate                       : 13.9 Mb/s
Width                          : 3 840 pixels
Height                         : 2 160 pixels
Display aspect ratio           : 16:9
Frame rate mode                : Constant
Frame rate                     : 23.976 (24000/1001) FPS
Color space                    : YUV
Bits/(Pixel*Frame)             : 0.070
Stream size                    : 978 MiB (99%)
Default                        : Yes
Forced                         : No
Color range                    : Limited
Color primaries                : BT.709
Transfer characteristics       : BT.709
Matrix coefficients            : BT.709

Audio
ID                             : 2
Format                         : Opus
Codec ID                       : A_OPUS
Duration                       : 9 min 49 s
Bit rate                       : 132 kb/s
Channel(s)                     : 2 channels
Channel layout                 : L R
Sampling rate                  : 48.0 kHz
Frame rate                     : 50.001 FPS (960 SPF)
Bit depth                      : 16 bits
Compression mode               : Lossy
Stream size                    : 9.27 MiB (1%)
Default                        : Yes
Forced                         : No




Fagradalsfjall-冰岛火山(987MB)(2021)WEBRip 2160p.torrent (20.3 KB, 售价: 9 金币)
回复

使用道具 举报

0

主题

1102

帖子

3320

积分

4K家园VIP

Rank: 9Rank: 9Rank: 9

积分
3320
发表于 2021-4-5 10:00:06 | 显示全部楼层
谢谢楼主
回复 支持 反对

使用道具 举报

0

主题

3689

帖子

1万

积分

4K家园VIP

Rank: 9Rank: 9Rank: 9

积分
10136
发表于 2021-4-5 10:03:52 | 显示全部楼层
冰岛火山4k
回复 支持 反对

使用道具 举报

1

主题

1171

帖子

3343

积分

4K家园VIP

Rank: 9Rank: 9Rank: 9

积分
3343
发表于 2021-4-6 06:48:17 | 显示全部楼层
多谢楼主分享
回复 支持 反对

使用道具 举报

2

主题

1312

帖子

3788

积分

4K家园VIP

Rank: 9Rank: 9Rank: 9

积分
3788
发表于 4 天前 | 显示全部楼层
占坑编辑ing
回复 支持 反对

使用道具 举报

2

主题

1231

帖子

3537

积分

4K家园VIP

Rank: 9Rank: 9Rank: 9

积分
3537
发表于 3 天前 | 显示全部楼层
分享的不错,希望楼主继续分享
回复 支持 反对

使用道具 举报

194

主题

1431

帖子

3893

积分

4K家园VIP

Rank: 9Rank: 9Rank: 9

积分
3893
发表于 昨天 08:10 | 显示全部楼层
占坑编辑ing
回复 支持 反对

使用道具 举报

您需要登录后才可以回帖 登录 | 立即注册

本版积分规则

精彩图文
Archiver|手机版|TAG|Sitemap|新帖|专题|联系我们:邮箱: 4kjia.com@gmail.com   

4k家园   ©2019