[4K记录视频] [国家地理] 探索北方(2018)[2160P/MKV/1.02GB]

[复制链接]

2291

主题

2584

帖子

2万

积分

超级版主

Rank: 8Rank: 8

积分
21534
 楼主| 发表于 2021-4-22 19:44:37 | 显示全部楼层 |阅读模式

探索北方(1.02GB)(2018)WEBRip 2160p.mkv_20210422_193923.140.jpg 探索北方(1.02GB)(2018)WEBRip 2160p.mkv_20210422_193932.235.jpg 探索北方(1.02GB)(2018)WEBRip 2160p.mkv_20210422_193944.220.jpg 探索北方(1.02GB)(2018)WEBRip 2160p.mkv_20210422_193950.163.jpg 探索北方(1.02GB)(2018)WEBRip 2160p.mkv_20210422_193957.836.jpg 探索北方(1.02GB)(2018)WEBRip 2160p.mkv_20210422_194003.724.jpg

关于信息
标题:探索北
发行时间: 2018
国家/地区:挪威
时间: 00 : 07 : 04
类型: 种
导演:马丁·赫克
演员:。

电影简介:

        通过航拍镜头和定时摄影机探索挪威北部。


General
Complete name                  : 国家地理\探索北方(1.02GB)(2018)WEBRip 2160p.mkv
Format                         : Matroska
Format version                 : Version 4
File size                      : 1.02 GiB
Duration                       : 7 min 4 s
Overall bit rate               : 20.6 Mb/s
Encoded date                   : UTC 2021-02-08 19:38:16
Writing application            : mkvmerge v53.0.0 ('Fool's Gold') 64-bit
Writing library                : libebml v1.4.1 + libmatroska v1.6.2

Video
ID                             : 1
Format                         : AVC
Format/Info                    : Advanced Video Codec
Format profile                 : High@L5.2
Format settings                : CABAC / 5 Ref Frames
Format settings, CABAC         : Yes
Format settings, Reference fra : 5 frames
Codec ID                       : V_MPEG4/ISO/AVC
Duration                       : 7 min 4 s
Bit rate                       : 20.5 Mb/s
Width                          : 4 096 pixels
Height                         : 1 920 pixels
Display aspect ratio           : 2.133
Frame rate mode                : Constant
Frame rate                     : 29.970 (30000/1001) FPS
Color space                    : YUV
Chroma subsampling             : 4:2:0
Bit depth                      : 8 bits
Scan type                      : Progressive
Bits/(Pixel*Frame)             : 0.087
Stream size                    : 1.01 GiB (99%)
Writing library                : x264 core 157 r10 545de2f
Encoding settings              : cabac=1 / ref=5 / deblock=1:0:0 / analyse=0x3:0x113 / me=hex / subme=8 / psy=1 / psy_rd=1.00:0.00 / mixed_ref=1 / me_range=16 / chroma_me=1 / trellis=2 / 8x8dct=1 / cqm=0 / deadzone=21,11 / fast_pskip=1 / chroma_qp_offset=-2 / threads=48 / lookahead_threads=8 / sliced_threads=0 / nr=0 / decimate=1 / interlaced=0 / bluray_compat=0 / stitchable=1 / constrained_intra=0 / bframes=3 / b_pyramid=2 / b_adapt=2 / b_bias=0 / direct=3 / weightb=1 / open_gop=0 / weightp=2 / keyint=infinite / keyint_min=29 / scenecut=40 / intra_refresh=0 / rc_lookahead=50 / rc=crf / mbtree=1 / crf=20.0 / qcomp=0.60 / qpmin=5 / qpmax=69 / qpstep=4 / vbv_maxrate=24200 / vbv_bufsize=66000 / crf_max=0.0 / nal_hrd=none / filler=0 / ip_ratio=1.40 / aq=1:1.00
Default                        : Yes
Forced                         : No
Color range                    : Limited
Color primaries                : BT.709
Transfer characteristics       : BT.709
Matrix coefficients            : BT.709

Audio
ID                             : 2
Format                         : AAC LC
Format/Info                    : Advanced Audio Codec Low Complexity
Codec ID                       : A_AAC-2
Duration                       : 7 min 4 s
Bit rate                       : 137 kb/s
Channel(s)                     : 2 channels
Channel layout                 : L R
Sampling rate                  : 48.0 kHz
Frame rate                     : 46.875 FPS (1024 SPF)
Compression mode               : Lossy
Stream size                    : 6.93 MiB (1%)
Default                        : Yes
Forced                         : No


游客,如果您要查看本帖隐藏内容请回复




.
回复

使用道具 举报

2

主题

1251

帖子

3771

积分

4K家园VIP

Rank: 9Rank: 9Rank: 9

积分
3771
发表于 2021-4-22 19:44:44 | 显示全部楼层
4K应该不错,我也下个看看
回复 支持 反对

使用道具 举报

0

主题

3990

帖子

1万

积分

4K家园VIP

Rank: 9Rank: 9Rank: 9

积分
10706
发表于 2021-4-22 19:52:52 | 显示全部楼层
挪威☆探索北方4k
回复 支持 反对

使用道具 举报

0

主题

62

帖子

3856

积分

中级会员

Rank: 4

积分
3856
发表于 2021-4-23 20:05:04 | 显示全部楼层
感谢楼主制作
回复 支持 反对

使用道具 举报

2

主题

17

帖子

94

积分

新手上路

Rank: 1

积分
94
发表于 2021-4-25 10:17:01 | 显示全部楼层
放假你还敢你和你
回复 支持 反对

使用道具 举报

0

主题

3

帖子

12

积分

新手上路

Rank: 1

积分
12
发表于 2021-4-25 23:38:49 来自手机 | 显示全部楼层
先顶再看
回复

使用道具 举报

1

主题

1211

帖子

3649

积分

4K家园VIP

Rank: 9Rank: 9Rank: 9

积分
3649
发表于 2021-4-26 10:37:46 | 显示全部楼层
确实不错,顶先
回复 支持 反对

使用道具 举报

198

主题

1580

帖子

4298

积分

4K家园VIP

Rank: 9Rank: 9Rank: 9

积分
4298
发表于 2021-4-27 01:23:36 | 显示全部楼层
嘘,低调。
回复 支持 反对

使用道具 举报

0

主题

1

帖子

10

积分

新手上路

Rank: 1

积分
10
发表于 2021-4-27 08:55:54 | 显示全部楼层
感谢楼主制作
回复 支持 反对

使用道具 举报

0

主题

99

帖子

296

积分

新手上路

Rank: 1

积分
296
发表于 2021-4-27 10:26:45 | 显示全部楼层
谢谢楼主分享
回复 支持 反对

使用道具 举报

您需要登录后才可以回帖 登录 | 立即注册

本版积分规则

精彩图文
Archiver|手机版|TAG|Sitemap|新帖|专题|联系我们:邮箱: 4kjia.com@gmail.com   

4k家园   ©2019