[4K记录视频] [国家地理] 斯洛文尼亚(2020)[2160P/MKV/447MB]

[复制链接]

2291

主题

2584

帖子

2万

积分

超级版主

Rank: 8Rank: 8

积分
21534
 楼主| 发表于 2021-4-23 10:30:00 | 显示全部楼层 |阅读模式

斯洛文尼亚(447MB)(2020)WEBRip 2160p.mkv_20210422_194625.803.jpg 斯洛文尼亚(447MB)(2020)WEBRip 2160p.mkv_20210422_194631.363.jpg 斯洛文尼亚(447MB)(2020)WEBRip 2160p.mkv_20210422_194640.323.jpg 斯洛文尼亚(447MB)(2020)WEBRip 2160p.mkv_20210422_194649.043.jpg 斯洛文尼亚(447MB)(2020)WEBRip 2160p.mkv_20210422_194658.979.jpg 斯洛文尼亚(447MB)(2020)WEBRip 2160p.mkv_20210422_194707.275.jpg 斯洛文尼亚(447MB)(2020)WEBRip 2160p.mkv_20210422_194714.939.jpg

General
Complete name                  : 国家地理\斯洛文尼亚(447MB)(2020)WEBRip 2160p.mkv
Format                         : Matroska
Format version                 : Version 4
File size                      : 448 MiB
Duration                       : 3 min 18 s
Overall bit rate               : 18.9 Mb/s
Encoded date                   : UTC 2021-03-06 18:06:35
Writing application            : mkvmerge v54.0.0 ('F Maj Pixie') 64-bit
Writing library                : libebml v1.4.2 + libmatroska v1.6.3

Video
ID                             : 1
Format                         : AVC
Format/Info                    : Advanced Video Codec
Format profile                 : High@L5.2
Format settings                : CABAC / 5 Ref Frames
Format settings, CABAC         : Yes
Format settings, Reference fra : 5 frames
Codec ID                       : V_MPEG4/ISO/AVC
Duration                       : 3 min 18 s
Bit rate                       : 18.6 Mb/s
Width                          : 3 840 pixels
Height                         : 2 160 pixels
Display aspect ratio           : 16:9
Frame rate mode                : Constant
Frame rate                     : 23.976 (24000/1001) FPS
Color space                    : YUV
Chroma subsampling             : 4:2:0
Bit depth                      : 8 bits
Scan type                      : Progressive
Bits/(Pixel*Frame)             : 0.094
Stream size                    : 442 MiB (99%)
Writing library                : x264 core 160 r10 22fcbe1
Encoding settings              : cabac=1 / ref=5 / deblock=1:0:0 / analyse=0x3:0x113 / me=hex / subme=8 / psy=1 / psy_rd=1.00:0.00 / mixed_ref=1 / me_range=16 / chroma_me=1 / trellis=2 / 8x8dct=1 / cqm=0 / deadzone=21,11 / fast_pskip=1 / chroma_qp_offset=-2 / threads=48 / lookahead_threads=8 / sliced_threads=0 / nr=0 / decimate=1 / interlaced=0 / bluray_compat=0 / stitchable=1 / constrained_intra=0 / bframes=3 / b_pyramid=2 / b_adapt=2 / b_bias=0 / direct=3 / weightb=1 / open_gop=0 / weightp=2 / keyint=infinite / keyint_min=23 / scenecut=40 / intra_refresh=0 / rc_lookahead=50 / rc=crf / mbtree=1 / crf=20.0 / qcomp=0.60 / qpmin=5 / qpmax=69 / qpstep=4 / vbv_maxrate=24200 / vbv_bufsize=66000 / crf_max=0.0 / nal_hrd=none / filler=0 / ip_ratio=1.40 / aq=1:1.00
Default                        : Yes
Forced                         : No
Color range                    : Limited
Color primaries                : BT.709
Transfer characteristics       : BT.709
Matrix coefficients            : BT.709

Audio
ID                             : 2
Format                         : AAC LC
Format/Info                    : Advanced Audio Codec Low Complexity
Codec ID                       : A_AAC-2
Duration                       : 3 min 18 s
Bit rate                       : 253 kb/s
Channel(s)                     : 2 channels
Channel layout                 : L R
Sampling rate                  : 48.0 kHz
Frame rate                     : 46.875 FPS (1024 SPF)
Compression mode               : Lossy
Stream size                    : 6.01 MiB (1%)
Default                        : Yes
Forced                         : No



游客,如果您要查看本帖隐藏内容请回复



.
回复

使用道具 举报

0

主题

1267

帖子

3621

积分

4K家园VIP

Rank: 9Rank: 9Rank: 9

积分
3621
发表于 2021-4-23 10:30:07 | 显示全部楼层
支持支持再支持
回复 支持 反对

使用道具 举报

0

主题

3990

帖子

1万

积分

4K家园VIP

Rank: 9Rank: 9Rank: 9

积分
10706
发表于 2021-4-23 10:56:34 | 显示全部楼层
斯洛文尼亞4k
回复 支持 反对

使用道具 举报

53

主题

1108

帖子

3390

积分

4K家园VIP

Rank: 9Rank: 9Rank: 9

积分
3390
发表于 2021-4-23 15:46:59 | 显示全部楼层
鼎力支持!!
回复 支持 反对

使用道具 举报

41

主题

1400

帖子

3998

积分

4K家园VIP

Rank: 9Rank: 9Rank: 9

积分
3998
发表于 2021-4-30 21:07:13 | 显示全部楼层
前排,哇咔咔
回复 支持 反对

使用道具 举报

1

主题

1071

帖子

3235

积分

4K家园VIP

Rank: 9Rank: 9Rank: 9

积分
3235
发表于 2021-5-2 04:57:27 | 显示全部楼层
看起来不错
回复 支持 反对

使用道具 举报

0

主题

4

帖子

22

积分

新手上路

Rank: 1

积分
22
发表于 2021-5-2 13:09:19 | 显示全部楼层

支持支持再支持
回复 支持 反对

使用道具 举报

1

主题

1244

帖子

3584

积分

4K家园VIP

Rank: 9Rank: 9Rank: 9

积分
3584
发表于 2021-5-5 06:18:44 | 显示全部楼层
LZ敢整点更有创意的不?兄弟们等着围观捏~
回复 支持 反对

使用道具 举报

0

主题

21

帖子

75

积分

新手上路

Rank: 1

积分
75
发表于 2021-5-5 10:36:30 | 显示全部楼层

小白一个 顶一下
回复 支持 反对

使用道具 举报

0

主题

15

帖子

54

积分

新手上路

Rank: 1

积分
54
发表于 2021-5-5 11:37:44 | 显示全部楼层
支持楼主,支持4K家园
回复 支持 反对

使用道具 举报

您需要登录后才可以回帖 登录 | 立即注册

本版积分规则

精彩图文
Archiver|手机版|TAG|Sitemap|新帖|专题|联系我们:邮箱: 4kjia.com@gmail.com   

4k家园   ©2019