[4K记录视频] [国家地理] 生命之源(2019)[2160P/MKV/633MB]

[复制链接]

2291

主题

2584

帖子

2万

积分

超级版主

Rank: 8Rank: 8

积分
21534
 楼主| 发表于 2021-4-24 10:30:00 | 显示全部楼层 |阅读模式
生命之流(633MB)(2019)WE​​BRip 2160p.mkv_20210422_195420.395.jpg 生命之流(633MB)(2019)WE​​BRip 2160p.mkv_20210422_195425.971.jpg 生命之流(633MB)(2019)WE​​BRip 2160p.mkv_20210422_195440.315.jpg 生命之流(633MB)(2019)WE​​BRip 2160p.mkv_20210422_195445.755.jpg 生命之流(633MB)(2019)WE​​BRip 2160p.mkv_20210422_195502.211.jpg 生命之流(633MB)(2019)WE​​BRip 2160p.mkv_20210422_195512.490.jpg

有关信息
标题:生命的流动
发行时间: 2019年
国家/地区:西班牙
时长: 00:04 : 08
类型: 物种
导演: Txema Ortiz

关于电影:

       一段录像,展示水在自然中的流动方式不同,创造了迷人的地方,值得一看的小角落保存。


General
Complete name                  : 国家地理\生命之流(633MB)(2019)WE​​BRip 2160p.mkv
Format                         : Matroska
Format version                 : Version 4
File size                      : 634 MiB
Duration                       : 4 min 8 s
Overall bit rate               : 21.4 Mb/s
Encoded date                   : UTC 2021-03-06 16:39:57
Writing application            : mkvmerge v54.0.0 ('F Maj Pixie') 64-bit
Writing library                : libebml v1.4.2 + libmatroska v1.6.3

Video
ID                             : 1
Format                         : AVC
Format/Info                    : Advanced Video Codec
Format profile                 : High@L5.2
Format settings                : CABAC / 5 Ref Frames
Format settings, CABAC         : Yes
Format settings, Reference fra : 5 frames
Codec ID                       : V_MPEG4/ISO/AVC
Duration                       : 4 min 8 s
Bit rate                       : 21.2 Mb/s
Width                          : 3 840 pixels
Height                         : 2 160 pixels
Display aspect ratio           : 16:9
Frame rate mode                : Constant
Frame rate                     : 25.000 FPS
Color space                    : YUV
Chroma subsampling             : 4:2:0
Bit depth                      : 8 bits
Scan type                      : Progressive
Bits/(Pixel*Frame)             : 0.102
Stream size                    : 630 MiB (99%)
Writing library                : x264 core 157 r10 545de2f
Encoding settings              : cabac=1 / ref=5 / deblock=1:0:0 / analyse=0x3:0x113 / me=hex / subme=8 / psy=1 / psy_rd=1.00:0.00 / mixed_ref=1 / me_range=16 / chroma_me=1 / trellis=2 / 8x8dct=1 / cqm=0 / deadzone=21,11 / fast_pskip=1 / chroma_qp_offset=-2 / threads=48 / lookahead_threads=8 / sliced_threads=0 / nr=0 / decimate=1 / interlaced=0 / bluray_compat=0 / stitchable=1 / constrained_intra=0 / bframes=3 / b_pyramid=2 / b_adapt=2 / b_bias=0 / direct=3 / weightb=1 / open_gop=0 / weightp=2 / keyint=infinite / keyint_min=25 / scenecut=40 / intra_refresh=0 / rc_lookahead=50 / rc=crf / mbtree=1 / crf=20.0 / qcomp=0.60 / qpmin=5 / qpmax=69 / qpstep=4 / vbv_maxrate=24200 / vbv_bufsize=66000 / crf_max=0.0 / nal_hrd=none / filler=0 / ip_ratio=1.40 / aq=1:1.00
Default                        : Yes
Forced                         : No
Color range                    : Limited
Color primaries                : BT.709
Transfer characteristics       : BT.709
Matrix coefficients            : BT.709

Audio
ID                             : 2
Format                         : AAC LC
Format/Info                    : Advanced Audio Codec Low Complexity
Codec ID                       : A_AAC-2
Duration                       : 4 min 8 s
Bit rate                       : 137 kb/s
Channel(s)                     : 2 channels
Channel layout                 : L R
Sampling rate                  : 48.0 kHz
Frame rate                     : 46.875 FPS (1024 SPF)
Compression mode               : Lossy
Stream size                    : 4.06 MiB (1%)
Default                        : Yes
Forced                         : No

游客,如果您要查看本帖隐藏内容请回复



.


回复

使用道具 举报

43

主题

1369

帖子

3913

积分

4K家园VIP

Rank: 9Rank: 9Rank: 9

积分
3913
发表于 2021-4-24 10:30:05 来自手机 | 显示全部楼层
路过的帮顶
回复 支持 反对

使用道具 举报

0

主题

3990

帖子

1万

积分

4K家园VIP

Rank: 9Rank: 9Rank: 9

积分
10706
发表于 2021-4-24 11:20:11 | 显示全部楼层
西班牙生命之源4k
回复 支持 反对

使用道具 举报

1

主题

1258

帖子

3622

积分

4K家园VIP

Rank: 9Rank: 9Rank: 9

积分
3622
发表于 2021-5-6 12:29:14 | 显示全部楼层
元芳你怎么看?
回复 支持 反对

使用道具 举报

48

主题

1356

帖子

3886

积分

4K家园VIP

Rank: 9Rank: 9Rank: 9

积分
3886
发表于 2021-5-6 13:30:57 | 显示全部楼层
秀起来~
回复 支持 反对

使用道具 举报

0

主题

21

帖子

75

积分

新手上路

Rank: 1

积分
75
发表于 7 天前 | 显示全部楼层
西班牙生命之源4k太牛比了赞
回复 支持 反对

使用道具 举报

0

主题

17

帖子

258

积分

新手上路

Rank: 1

积分
258
发表于 7 天前 | 显示全部楼层
感谢楼主分享!!!
回复 支持 反对

使用道具 举报

0

主题

1206

帖子

3440

积分

4K家园VIP

Rank: 9Rank: 9Rank: 9

积分
3440
发表于 7 天前 | 显示全部楼层
前排顶起
回复 支持 反对

使用道具 举报

0

主题

547

帖子

1838

积分

注册会员

Rank: 2

积分
1838
发表于 6 天前 | 显示全部楼层
谢楼主分享
回复 支持 反对

使用道具 举报

0

主题

2

帖子

9

积分

新手上路

Rank: 1

积分
9
发表于 6 天前 来自手机 | 显示全部楼层
6666666666
回复 支持 反对

使用道具 举报

您需要登录后才可以回帖 登录 | 立即注册

本版积分规则

精彩图文
Archiver|手机版|TAG|Sitemap|新帖|专题|联系我们:邮箱: 4kjia.com@gmail.com   

4k家园   ©2019