[4K美女视频] 2019赛车模特-I.O.I 4k直拍粉丝团by Athrun [2160P/MKV/229MB]

[复制链接]

2322

主题

2616

帖子

2万

积分

超级版主

Rank: 8Rank: 8

积分
21942
 楼主| 发表于 2021-5-15 09:35:22 | 显示全部楼层 |阅读模式

2019赛车模特-I.O.I 4k直拍粉丝团by Athrun.mp4_20210422_210422.398_副本.jpg 2019赛车模特-I.O.I 4k直拍粉丝团by Athrun.mp4_20210422_210433.263_副本.jpg 2019赛车模特-I.O.I 4k直拍粉丝团by Athrun.mp4_20210422_210453.774_副本.jpg 2019赛车模特-I.O.I 4k直拍粉丝团by Athrun.mp4_20210422_210502.278_副本.jpg

General
Complete name                  : 2019美女模特韩国车展\2019赛车模特-I.O.I 4k直拍粉丝团by Athrun.mp4
Format                         : MPEG-4
Format profile                 : Base Media
Codec ID                       : isom (isom/iso2/avc1/mp41)
File size                      : 230 MiB
Duration                       : 2 min 34 s
Overall bit rate               : 12.5 Mb/s
Writing application            : EX1.4.4(C1.0.9)

Video
ID                             : 1
Format                         : AVC
Format/Info                    : Advanced Video Codec
Format profile                 : High@L5.1
Format settings                : CABAC / 3 Ref Frames
Format settings, CABAC         : Yes
Format settings, Reference fra : 3 frames
Format settings, GOP           : M=3, N=60
Codec ID                       : avc1
Codec ID/Info                  : Advanced Video Coding
Duration                       : 2 min 34 s
Bit rate                       : 12.3 Mb/s
Width                          : 2 160 pixels
Height                         : 3 840 pixels
Display aspect ratio           : 0.563
Frame rate mode                : Constant
Frame rate                     : 29.970 (29970/1000) FPS
Color space                    : YUV
Chroma subsampling             : 4:2:0
Bit depth                      : 8 bits
Scan type                      : Progressive
Bits/(Pixel*Frame)             : 0.049
Stream size                    : 226 MiB (98%)
Codec configuration box        : avcC

Audio
ID                             : 2
Format                         : AAC LC
Format/Info                    : Advanced Audio Codec Low Complexity
Codec ID                       : mp4a-40-2
Duration                       : 2 min 34 s
Bit rate mode                  : Constant
Bit rate                       : 192 kb/s
Channel(s)                     : 2 channels
Channel layout                 : L R
Sampling rate                  : 48.0 kHz
Frame rate                     : 46.875 FPS (1024 SPF)
Compression mode               : Lossy
Stream size                    : 3.54 MiB (2%)
Default                        : Yes
Alternate group                : 1


提供更多(4K、8K、16K)高品质MV、演示片等珍藏版视频,需要的联系本楼主。

网盘下载失效不补:链接: https://pan.baidu.com/s/1hss0PvYy3irptTdqE4onmg 提取码:
****此区域为收费内容****    需支付 15 金币后可查看立即购买




.
回复

使用道具 举报

47

主题

1441

帖子

4095

积分

4K家园VIP

Rank: 9Rank: 9Rank: 9

积分
4095
发表于 2021-5-15 09:35:28 来自手机 | 显示全部楼层
传说中的沙发???哇卡卡
回复 支持 反对

使用道具 举报

1

主题

646

帖子

7901

积分

4K家园VIP

Rank: 9Rank: 9Rank: 9

积分
7901
QQ
发表于 2021-5-17 13:24:11 | 显示全部楼层
沙发是我了
回复 支持 反对

使用道具 举报

0

主题

1216

帖子

3660

积分

4K家园VIP

Rank: 9Rank: 9Rank: 9

积分
3660
发表于 2021-5-17 19:33:07 | 显示全部楼层
在撸一遍。。。
回复 支持 反对

使用道具 举报

0

主题

3

帖子

12

积分

新手上路

Rank: 1

积分
12
发表于 2021-5-18 17:25:03 | 显示全部楼层
美人美车
回复

使用道具 举报

0

主题

718

帖子

2360

积分

注册会员

Rank: 2

积分
2360
发表于 2021-5-19 11:08:16 | 显示全部楼层

谢楼主分享
回复 支持 反对

使用道具 举报

0

主题

718

帖子

2360

积分

注册会员

Rank: 2

积分
2360
发表于 2021-5-19 11:08:33 | 显示全部楼层

谢楼主分享
回复 支持 反对

使用道具 举报

42

主题

1419

帖子

4057

积分

4K家园VIP

Rank: 9Rank: 9Rank: 9

积分
4057
发表于 2021-5-25 14:07:48 | 显示全部楼层
没人回帖。。。我来个吧
回复 支持 反对

使用道具 举报

55

主题

1359

帖子

3931

积分

4K家园VIP

Rank: 9Rank: 9Rank: 9

积分
3931
发表于 2021-5-28 15:27:25 | 显示全部楼层
元芳你怎么看?
回复 支持 反对

使用道具 举报

您需要登录后才可以回帖 登录 | 立即注册

本版积分规则

精彩图文
Archiver|手机版|TAG|Sitemap|新帖|专题|联系我们:邮箱: 4kjia.com@gmail.com   

4k家园   ©2019