[4K UHD 蓝光原盘] 《龙纹身的女孩 (2011) (俄版)》4K高清版本下载/89.47GB

  [复制链接]

833

主题

864

帖子

1万

积分

超级版主

Rank: 8Rank: 8

积分
11087
 楼主| 发表于 2021-4-24 09:27:09 | 显示全部楼层 |阅读模式
本帖最后由 没完没了 于 2021-4-23 10:14 编辑

QQ图片20210423094740_副本_meitu_2.jpg

◎译  名 龙纹身的女孩/千禧三部曲I:龙纹身的女孩(台)/龙纹身女孩
◎片  名 The Girl with the Dragon Tattoo
◎年  代 2011
◎产  地 美国/瑞典/挪威
◎类  别 剧情/犯罪/悬疑/惊悚
◎语  言 英语
◎上映日期 2011-12-12(伦敦首映)/2011-12-21(美国)
◎豆瓣评分 8.0/10 from 163,245 users
◎豆瓣链接 https://movie.douban.com/subject/4206357/
◎片  长 158分钟
◎导  演 大卫·芬奇 David Fincher
◎主  演 丹尼尔·克雷格 Daniel Craig
      鲁妮·玛拉 Rooney Mara
      克里斯托弗·普卢默 Christopher Plummer
      斯特兰·斯卡斯加德 Stellan Skarsgård
      史蒂文·伯克夫 Steven Berkoff
      罗宾·怀特 Robin Wright
      约里克·范·韦杰宁根 Yorick van Wageningen
      乔莉·理查德森 Joely Richardson
      杰拉丁妮·詹姆斯 Geraldine James
      高兰·维斯耶克 Goran Visnjic
      唐纳德·桑普特 Donald Sumpter
      乌尔夫·弗里贝格 Ulf Friberg
      本基特·卡尔森 Bengt C.W. Carlsson
      托尼·威 Tony Way
      帕尔·麦尔伯格 Per Myrberg
      约瑟芬·阿斯普伦德 Josefin Asplund
      埃娃·弗里肖夫松 Eva Fritjofson
      莫娅·嘉尔彭铎 Moa Garpendal
      马娅·汉松-贝里奎斯特 Maya Hansson-Bergqvist
      萨拉·阿佩尔贝里 Sarah Appelberg
      朱利安·山德斯 Julian Sands
      安娜·比约克 Anna Björk
      古斯塔夫·汉马斯顿 Gustaf Hammarsten
      西蒙·赖特纳 Simon Reithner
      大卫·丹席克 David Dencik
      马库斯·约翰松 Marcus Johansson
      玛蒂尔达·冯·埃森 Mathilda von Essen
      马蒂亚斯·帕尔梅 Mathias Palmér
      马丁·贾维斯 Martin Jarvis
      因加·朗格里 Inga Landgré
      安德尔斯·伯格 Anders Berg
      马茨·安德松 Mats Andersson
      尤尔根·克莱恩 Jürgen Klein
      雅丽·乔维尔 Arly Jover
      阿兰·戴尔 Alan Dale
      莱娜·斯特伦达尔 Lena Strömdahl
      里奥·比尔 Leo Bill
      弗雷德里克·多尔克 Fredrik Dolk
      艾洛蒂·袁 Elodie Yung
      艾伯丝·戴维兹 Embeth Davidtz
      乔尔·金纳曼 Joel Kinnaman
      卡伦·E·弗里格特 Karen E. Wright

◎简  介

  《千禧年》杂志的财经记者米克尔·布隆克维斯特(丹尼尔·克雷格 Daniel Craig 饰)正被一桩报导引起的诽谤诉讼案搞得焦头烂额之际,却意外接到了瑞典顶尖家族企业范耶尔工业集团的创始人亨利·范耶尔(克里斯托弗·普卢默 Christopher Plummer 饰)的邀请。表面上米克尔要为对方写传记,实则是帮迪奇调查一桩40年前发生在家族里的悬而未决的杀人案。米克尔认真梳理堆积如山的资料,与家族成员交流攀谈。却在关键时刻,被一个边缘女孩莉丝贝丝·沙兰德(鲁妮·玛拉 Rooney Mara 饰)入侵电脑盗取了资料。他找到同要具有非凡调查能力的莉丝,邀请她一同调查,却发现面前是一个深不见底的欲望黑洞……
  本片根据瑞典小说家斯蒂格·拉尔松(Stieg Larsson)的原著改编。

◎获奖情况

  第84届奥斯卡金像奖  (2012)
  最佳女主角(提名) 鲁妮·玛拉
  最佳摄影(提名) 杰夫·克隆威斯
  最佳剪辑 柯克·巴克斯特 / 安格斯·瓦尔
  最佳混音(提名) 伦·克斯 / Bo Persson / 大卫·帕克 / 迈克尔·斯曼内科
  最佳音效剪辑(提名) 伦·克斯

  第69届金球奖  (2012)
  电影类 剧情片最佳女主角(提名) 鲁妮·玛拉
  电影类 最佳原创配乐(提名) 特伦特·雷诺 / 阿提喀斯·罗斯

  第36届日本电影学院奖  (2013)
  最佳外语片(提名)

  第21届MTV电影奖  (2012)
  MTV电影奖 最佳女演员(提名) 鲁妮·玛拉
  MTV电影奖 突破表演奖(提名) 鲁妮·玛拉
  MTV电影奖 最佳银幕形象转变(提名) 鲁妮·玛拉

  第17届美国评论家选择电影奖  (2012)
  最佳剪辑 柯克·巴克斯特 / 安格斯·瓦尔
  最佳配乐(提名) 特伦特·雷诺 / 阿提喀斯·罗斯

  第12届美国电影学会奖  (2011)
  年度佳片

  第10届华盛顿影评人协会奖  (2011)
  最佳配乐(提名) 特伦特·雷诺 / 阿提喀斯·罗斯

  第24届芝加哥影评人协会奖  (2011)
  最佳原创配乐(提名) 特伦特·雷诺 / 阿提喀斯·罗斯


Media Info
General
Complete name : J:\DISC 3\Girl with the Dragon Tattoo, the.2011.[Open Matte].WEB-DL.AI_UPSCALE_3840x2160_amq-10_SDR_Finalalang
Format : Matroska
Format version : Version 4
File size : 89.5 GiB
Duration : 2 h 38 min
Overall bit rate : 81.0 Mb/s
Movie name : The Girl with the Dragon Tattoo (2011)
Encoded date : UTC 2021-02-16 17:00:47
Writing application : mkvmerge v53.0.0 ('Fool's Gold') 64-bit
Writing library : libebml v1.4.1 + libmatroska v1.6.2
Cover : Yes
Attachments : cover

Video
ID : 1
Format : AVC
Format/Info : Advanced Video Codec
Format profile : Baseline@L5.1
Format settings : 1 Ref Frames
Format settings, CABAC : No
Format settings, Reference fra : 1 frame
Format settings, GOP : M=1, N=12
Codec ID : V_MPEG4/ISO/AVC
Duration : 2 h 38 min
Bit rate : 77.4 Mb/s
Width : 3 840 pixels
Height : 2 160 pixels
Display aspect ratio : 16:9
Frame rate mode : Constant
Frame rate : 23.976 (24000/1001) FPS
Color space : YUV
Chroma subsampling : 4:2:0
Bit depth : 8 bits
Scan type : Progressive
Bits/(Pixel*Frame) : 0.389
Stream size : 85.5 GiB (96%)
Writing library : x264 core 157 r2970 5493be8
Encoding settings : cabac=0 / ref=1 / deblock=0:0:0 / analyse=0:0 / me=dia / subme=0 / psy=1 / psy_rd=1.00:0.00 / mixed_ref=0 / me_range=16 / chroma_me=1 / trellis=0 / 8x8dct=0 / cqm=0 / deadzone=21,11 / fast_pskip=1 / chroma_qp_offset=0 / threads=8 / lookahead_threads=1 / sliced_threads=0 / nr=0 / decimate=1 / interlaced=0 / bluray_compat=0 / constrained_intra=0 / bframes=0 / weightp=0 / keyint=12 / keyint_min=1 / scenecut=0 / intra_refresh=0 / rc=crf / mbtree=0 / crf=15.0 / qcomp=0.60 / qpmin=0 / qpmax=69 / qpstep=4 / ip_ratio=1.40 / aq=0
Default : Yes
Forced : No
Color range : Limited
Color primaries : BT.709
Transfer characteristics : BT.709
Matrix coefficients : BT.709

Audio #1
ID : 2
Format : AC-3
Format/Info : Audio Coding 3
Commercial name : Dolby Digital
Codec ID : A_AC3
Duration : 2 h 38 min
Bit rate mode : Constant
Bit rate : 640 kb/s
Channel(s) : 6 channels
Channel layout : L R C LFE Ls Rs
Sampling rate : 48.0 kHz
Frame rate : 31.250 FPS (1536 SPF)
Compression mode : Lossy
Stream size : 724 MiB (1%)
Title : Dub
Language : Russian
Service kind : Complete Main
Default : Yes
Forced : Yes

Audio #2
ID : 3
Format : AC-3
Format/Info : Audio Coding 3
Commercial name : Dolby Digital
Codec ID : A_AC3
Duration : 2 h 38 min
Bit rate mode : Constant
Bit rate : 640 kb/s
Channel(s) : 6 channels
Channel layout : L R C LFE Ls Rs
Sampling rate : 48.0 kHz
Frame rate : 31.250 FPS (1536 SPF)
Compression mode : Lossy
Stream size : 724 MiB (1%)
Title : VO Matveev
Language : Russian
Service kind : Complete Main
Default : No
Forced : No

Audio #3
ID : 4
Format : AC-3
Format/Info : Audio Coding 3
Commercial name : Dolby Digital
Codec ID : A_AC3
Duration : 2 h 38 min
Bit rate mode : Constant
Bit rate : 640 kb/s
Channel(s) : 6 channels
Channel layout : L R C LFE Ls Rs
Sampling rate : 48.0 kHz
Frame rate : 31.250 FPS (1536 SPF)
Compression mode : Lossy
Stream size : 724 MiB (1%)
Title : VO Vizgunov
Language : Russian
Service kind : Complete Main
Default : No
Forced : No

Audio #4
ID : 5
Format : DTS
Format/Info : Digital Theater Systems
Codec ID : A_DTS
Duration : 2 h 38 min
Bit rate mode : Constant
Bit rate : 1 509 kb/s
Channel(s) : 6 channels
Channel layout : C L R Ls Rs LFE
Sampling rate : 48.0 kHz
Frame rate : 93.750 FPS (512 SPF)
Bit depth : 24 bits
Compression mode : Lossy
Stream size : 1.67 GiB (2%)
Language : English
Default : No
Forced : No

Audio #5
ID : 6
Format : AC-3
Format/Info : Audio Coding 3
Commercial name : Dolby Digital
Codec ID : A_AC3
Duration : 2 h 38 min
Bit rate mode : Constant
Bit rate : 192 kb/s
Channel(s) : 2 channels
Channel layout : L R
Sampling rate : 48.0 kHz
Frame rate : 31.250 FPS (1536 SPF)
Compression mode : Lossy
Stream size : 217 MiB (0%)
Title : Director's commentary
Language : English
Service kind : Complete Main
Default : No
Forced : No

Text #1
ID : 7
Format : UTF-8
Codec ID : S_TEXT/UTF8
Codec ID/Info : UTF-8 Plain Text
Duration : 47 min 9 s
Bit rate : 0 b/s
Count of elements : 5
Stream size : 242 Bytes (0%)
Title : Forced
Language : Russian
Default : Yes
Forced : Yes

Text #2
ID : 8
Format : UTF-8
Codec ID : S_TEXT/UTF8
Codec ID/Info : UTF-8 Plain Text
Duration : 2 h 30 min
Bit rate : 86 b/s
Count of elements : 1562
Stream size : 95.7 KiB (0%)
Language : Russian
Default : No
Forced : No

Text #3
ID : 9
Format : UTF-8
Codec ID : S_TEXT/UTF8
Codec ID/Info : UTF-8 Plain Text
Duration : 2 h 30 min
Bit rate : 86 b/s
Count of elements : 1583
Stream size : 96.1 KiB (0%)
Title : SDH
Language : Russian
Default : No
Forced : No

Text #4
ID : 10
Format : UTF-8
Codec ID : S_TEXT/UTF8
Codec ID/Info : UTF-8 Plain Text
Duration : 2 h 34 min
Bit rate : 115 b/s
Count of elements : 2500
Stream size : 130 KiB (0%)
Title : Commentary
Language : Russian
Default : No
Forced : No

Text #5
ID : 11
Format : UTF-8
Codec ID : S_TEXT/UTF8
Codec ID/Info : UTF-8 Plain Text
Duration : 2 h 31 min
Bit rate : 54 b/s
Count of elements : 1643
Stream size : 60.2 KiB (0%)
Language : English
Default : No
Forced : No

Text #6
ID : 12
Format : UTF-8
Codec ID : S_TEXT/UTF8
Codec ID/Info : UTF-8 Plain Text
Duration : 2 h 37 min
Bit rate : 60 b/s
Count of elements : 2000
Stream size : 69.7 KiB (0%)
Title : SDH
Language : English
Default : No
Forced : No

Text #7
ID : 13
Format : UTF-8
Codec ID : S_TEXT/UTF8
Codec ID/Info : UTF-8 Plain Text
Duration : 2 h 34 min
Bit rate : 100 b/s
Count of elements : 2470
Stream size : 113 KiB (0%)
Title : Commentary
Language : English
Default : No
Forced : No

Menu
00:00:00.000 : en:Blomkvist's Trial
00:09:53.884 : en:Henrik Vanger
00:22:05.699 : en:A New Guardian
00:28:24.786 : en:Vanger Family History
00:38:09.745 : en:Business Transaction
00:48:00.919 : en:Rape
00:55:07.345 : en:Revenge
01:01:06.204 : en:Blomkvist ans Wasp
01:09:22.032 : en:Religious Murders
01:16:12.859 : en:Blomkvist's Girlfriend
01:23:27.711 : en:Nazi Killings
01:32:49.730 : en:Father and Son
01:41:35.005 : en:The Chase
01:58:54.210 : en:Two Anitas
02:14:42.532 : en:Wennerstrom
02:23:15.837 : en:End Credits




首发4K蓝光REMUX俄版资源,无视迅雷下载软件,推荐使用qBittorrent等下载软件,有条件的推荐115更好的下载软件!
经典影片,欢迎有志之士爱好的发烧友投稿字幕,有意请联系本楼主,谢谢!


龙纹身的女孩(89.47GB)Girl with the Dragon Tattoo, the.2011.[Open Matte].WEB-DL.AI_UPSCALE_3840x2160_amq-10_SDR_Finalalang
游客,如果您要查看本帖隐藏内容请回复

1心,爱心.gif




回复

使用道具 举报

52

主题

1352

帖子

3886

积分

4K家园VIP

Rank: 9Rank: 9Rank: 9

积分
3886
发表于 2021-4-24 09:27:14 | 显示全部楼层
还有没有别的资源,多分享些
回复 支持 反对

使用道具 举报

0

主题

3990

帖子

1万

积分

4K家园VIP

Rank: 9Rank: 9Rank: 9

积分
10706
发表于 2021-4-24 11:22:29 | 显示全部楼层
太好啦&萬分感謝版主的無私發佈分享%
回复 支持 反对

使用道具 举报

0

主题

39

帖子

4706

积分

中级会员

Rank: 4

积分
4706
发表于 2021-4-24 19:23:51 | 显示全部楼层
好资源很给力
回复 支持 反对

使用道具 举报

1

主题

1493

帖子

4121

积分

4K家园VIP

Rank: 9Rank: 9Rank: 9

积分
4121
发表于 2021-4-25 03:00:30 | 显示全部楼层
楼猪辛苦了,支持一下分享好资源
回复 支持 反对

使用道具 举报

1

主题

20

帖子

140

积分

新手上路

Rank: 1

积分
140
发表于 2021-4-25 11:10:09 | 显示全部楼层
这个很经典。
回复 支持 反对

使用道具 举报

0

主题

3

帖子

12

积分

新手上路

Rank: 1

积分
12
发表于 2021-4-25 11:32:51 来自手机 | 显示全部楼层
楼主你好你好美女晚上好
回复 支持 反对

使用道具 举报

0

主题

34

帖子

135

积分

新手上路

Rank: 1

积分
135
发表于 2021-4-26 23:13:49 | 显示全部楼层

Where is Administration 4kjia.com?

Where is admin?
I'ts important.
Regards.
回复 支持 反对

使用道具 举报

3

主题

1214

帖子

3666

积分

4K家园VIP

Rank: 9Rank: 9Rank: 9

积分
3666
发表于 2021-4-27 14:24:56 | 显示全部楼层
谢谢楼主
回复 支持 反对

使用道具 举报

0

主题

6

帖子

343

积分

4K家园VIP

Rank: 9Rank: 9Rank: 9

积分
343
发表于 2021-4-27 18:20:25 | 显示全部楼层
怎么只有俄语音轨?
回复 支持 反对

使用道具 举报

您需要登录后才可以回帖 登录 | 立即注册

本版积分规则

精彩图文
Archiver|手机版|TAG|Sitemap|新帖|专题|联系我们:邮箱: 4kjia.com@gmail.com   

4k家园   ©2019