[4K UHD 蓝光原盘] 《永无止境 / Limitless (2011) (俄版)》4K高清版本下载/56.08GB

[复制链接]

898

主题

936

帖子

1万

积分

超级版主

Rank: 8Rank: 8

积分
11787
 楼主| 发表于 2021-5-29 10:15:41 | 显示全部楼层 |阅读模式
本帖最后由 没完没了 于 2021-5-29 10:15 编辑

QQ图片20210423101159_meitu_3.jpg

◎译  名 永无止境 / The Dark Fields / 药不能停(豆友译名) / 药命效应(台) / 逆天潜能(港) / 黑暗领域
◎片  名 Limitless
◎年  代 2011
◎产  地 美国
◎类  别 科幻 / 悬疑 / 惊悚
◎语  言 英语
◎上映日期 2011-03-18(美国) / 2011-10-13(中国大陆)
◎IMDb评分 7.4/10 from 516386 users
◎IMDb链接 https://www.imdb.com/title/tt1219289
◎豆瓣评分 7.4/10 from 111841 users
◎豆瓣链接 https://movie.douban.com/subject/3041269/
◎片  长 105分钟
◎导  演 尼尔·博格 Neil Burger
◎编  剧 Leslie Dixon / 艾伦·格林 Alan Glynn
◎主  演 布莱德利·库珀 Bradley Cooper
      艾比·考尼什 Abbie Cornish
      罗伯特·德尼罗 Robert De Niro
      安德鲁·霍华德 Andrew Howard
      安娜·弗莱尔 Anna Friel
      梅天悦 T.V. Carpio
      约翰尼·威特沃斯 Johnny Whitworth



◎简  介

  影片改编自阿兰·格里恩出版于2001年的小说《黑暗领域》,主演布莱德利·库珀曾获得2011年全球最性感男人称号。
  潦倒颓废的艾迪·莫莱(布莱德利·库珀 Bradley Cooper 饰)是一个丢掉了工作,缺乏灵感的作家。许久不联系的前小舅子给他一种正处在试验阶段的药物--NZT。服用一次之后艾迪发现自己精力充沛,思维清晰,行动敏捷,甚至能在瞬间把一些平时不易留意的细节和信息重新组合和整理并得出推论。等他再一次去找小舅子却发现他已被人谋杀,屋里一片狼藉,紧跟着是一群杀手的追杀。死里逃生的艾迪终于发现了这款名为NZT的新药物能使人发挥大脑100%的能力。借助NZT,艾迪重获灵感并进入上流社会,但大获成功之余也有致命的作用:身体不适和失控的情绪。而此时埃迪已不能离开这种药,这使他进入了一个黑暗领域,而杀手也在暗处监视他……

◎获奖情况

  第13届美国青少年选择奖(2011)
  最佳剧情片(提名)
  最佳剧情片男演员(提名) 布莱德利·库珀


Media Info
General
Complete name imitless.2011.[Open Matte].WEB-DL.AI_UPSCALE_3840x2160_amq-10_SDR_Finalalang
Format : Matroska
Format version : Version 4
File size : 56.1 GiB
Duration : 1 h 44 min
Overall bit rate : 76.6 Mb/s
Movie name : Limitless (2011)
Encoded date : UTC 2021-02-16 17:23:02
Writing application : mkvmerge v53.0.0 ('Fool's Gold') 64-bit
Writing library : libebml v1.4.1 + libmatroska v1.6.2
Attachments : poster

Video
ID : 1
Format : AVC
Format/Info : Advanced Video Codec
Format profile : Baseline@L5.1
Format settings : 1 Ref Frames
Format settings, CABAC : No
Format settings, Reference fra : 1 frame
Format settings, GOP : M=1, N=12
Codec ID : V_MPEG4/ISO/AVC
Duration : 1 h 44 min
Bit rate : 73.6 Mb/s
Width : 3 840 pixels
Height : 2 160 pixels
Display aspect ratio : 16:9
Frame rate mode : Constant
Frame rate : 23.976 (24000/1001) FPS
Color space : YUV
Chroma subsampling : 4:2:0
Bit depth : 8 bits
Scan type : Progressive
Bits/(Pixel*Frame) : 0.370
Stream size : 53.9 GiB (96%)
Writing library : x264 core 157 r2970 5493be8
Encoding settings : cabac=0 / ref=1 / deblock=0:0:0 / analyse=0:0 / me=dia / subme=0 / psy=1 / psy_rd=1.00:0.00 / mixed_ref=0 / me_range=16 / chroma_me=1 / trellis=0 / 8x8dct=0 / cqm=0 / deadzone=21,11 / fast_pskip=1 / chroma_qp_offset=0 / threads=8 / lookahead_threads=1 / sliced_threads=0 / nr=0 / decimate=1 / interlaced=0 / bluray_compat=0 / constrained_intra=0 / bframes=0 / weightp=0 / keyint=12 / keyint_min=1 / scenecut=0 / intra_refresh=0 / rc=crf / mbtree=0 / crf=15.0 / qcomp=0.60 / qpmin=0 / qpmax=69 / qpstep=4 / ip_ratio=1.40 / aq=0
Default : Yes
Forced : No
Color range : Limited
Color primaries : BT.709
Transfer characteristics : BT.709
Matrix coefficients : BT.709

Audio #1
ID : 2
Format : DTS
Format/Info : Digital Theater Systems
Codec ID : A_DTS
Duration : 1 h 44 min
Bit rate mode : Constant
Bit rate : 1 509 kb/s
Channel(s) : 6 channels
Channel layout : C L R Ls Rs LFE
Sampling rate : 48.0 kHz
Frame rate : 93.750 FPS (512 SPF)
Bit depth : 24 bits
Compression mode : Lossy
Stream size : 1.10 GiB (2%)
Title : Dub
Language : Russian
Default : Yes
Forced : Yes

Audio #2
ID : 3
Format : DTS
Format/Info : Digital Theater Systems
Codec ID : A_DTS
Duration : 1 h 44 min
Bit rate mode : Constant
Bit rate : 1 509 kb/s
Channel(s) : 6 channels
Channel layout : C L R Ls Rs LFE
Sampling rate : 48.0 kHz
Frame rate : 93.750 FPS (512 SPF)
Bit depth : 24 bits
Compression mode : Lossy
Stream size : 1.10 GiB (2%)
Title : Original
Language : English
Default : No
Forced : No

Text #1
ID : 4
Format : UTF-8
Codec ID : S_TEXT/UTF8
Codec ID/Info : UTF-8 Plain Text
Duration : 1 h 37 min
Bit rate : 97 b/s
Count of elements : 1071
Stream size : 70.0 KiB (0%)
Title : Russian
Language : Russian
Default : No
Forced : No

Text #2
ID : 5
Format : UTF-8
Codec ID : S_TEXT/UTF8
Codec ID/Info : UTF-8 Plain Text
Duration : 1 h 44 min
Bit rate : 71 b/s
Count of elements : 1367
Stream size : 54.4 KiB (0%)
Title : English
Language : English
Default : No
Forced : No

Menu
00:00:00.000 : :00:00:00.000
00:03:49.104 : :00:03:49.104
00:06:52.621 : :00:06:52.621
00:11:02.412 : :00:11:02.412
00:16:24.108 : :00:16:24.108
00:20:36.485 : :00:20:36.485
00:24:16.246 : :00:24:16.246
00:28:51.772 : :00:28:51.772
00:34:04.209 : :00:34:04.209
00:38:12.081 : :00:38:12.081
00:42:17.535 : :00:42:17.535
00:46:43.968 : :00:46:43.968
00:51:04.395 : :00:51:04.395
00:54:25.679 : :00:54:25.679
00:59:17.512 : :00:59:17.512
01:05:38.685 : :01:05:38.685
01:08:36.571 : :01:08:36.571
01:11:40.046 : :01:11:40.046
01:14:40.184 : :01:14:40.184
01:18:20.446 : :01:18:20.446
01:21:46.943 : :01:21:46.943
01:27:14.771 : :01:27:14.771
01:31:43.164 : :01:31:43.164
01:38:14.055 : :01:38:14.055



首发4K蓝光REMUX俄版资源,无视迅雷下载软件,推荐使用qBittorrent等下载软件,有条件的推荐115更好的下载软件!
经典影片,欢迎有志之士爱好的发烧友投稿字幕,有意请联系本楼主,谢谢!

永无止境(56.08GB)Limitless.2011.[Open Matte].WEB-DL.AI_UPSCALE_3840x2160_amq-10_SDR_Finalalang
游客,如果您要查看本帖隐藏内容请回复

1心,爱心.gif



回复

使用道具 举报

0

主题

1657

帖子

4517

积分

中级会员

Rank: 4

积分
4517
发表于 2021-5-29 10:15:46 来自手机 | 显示全部楼层
这个资源我记得是一套的,楼主还有没有
回复 支持 反对

使用道具 举报

0

主题

5006

帖子

1万

积分

4K家园VIP

Rank: 9Rank: 9Rank: 9

积分
12230
发表于 2021-5-29 11:22:53 | 显示全部楼层
永無止境4k
回复 支持 反对

使用道具 举报

0

主题

4

帖子

25

积分

新手上路

Rank: 1

积分
25
发表于 2021-6-3 22:25:42 | 显示全部楼层
感谢楼主无私奉献 ~~~~~~~~
回复 支持 反对

使用道具 举报

2

主题

1260

帖子

3598

积分

4K家园VIP

Rank: 9Rank: 9Rank: 9

积分
3598
发表于 2021-6-5 02:06:53 来自手机 | 显示全部楼层
4K家园资源最近貌似越来越多了
回复 支持 反对

使用道具 举报

0

主题

1

帖子

10

积分

新手上路

Rank: 1

积分
10
发表于 3 天前 | 显示全部楼层
fffffafgggg我发给付过付过过过过
回复 支持 反对

使用道具 举报

0

主题

1

帖子

6

积分

新手上路

Rank: 1

积分
6
发表于 前天 18:36 | 显示全部楼层
感谢楼主分享资源,这部电影很不错
回复 支持 反对

使用道具 举报

您需要登录后才可以回帖 登录 | 立即注册

本版积分规则

精彩图文
Archiver|手机版|TAG|Sitemap|新帖|专题|联系我们:邮箱: 4kjia.com@gmail.com   

4k家园   ©2019