[4K UHD 蓝光原盘] 《黑洞表面 / Event Horizon (1997)(俄版)》4K蓝光REMUX 版本下载

[复制链接]

897

主题

935

帖子

1万

积分

超级版主

Rank: 8Rank: 8

积分
11773
 楼主| 发表于 2021-5-25 11:49:56 | 显示全部楼层 |阅读模式
QQ图片20210514101737_meitu_2.jpg

◎译  名 黑洞表面/地平线事件/异煞/撕裂地平线/黑洞吸入线号飞船
◎片  名 Event Horizon
◎年  代 1997
◎产  地 英国,美国
◎类  别 科幻 / 悬疑 / 恐怖
◎语  言 英语,拉丁语
◎上映日期 1997-08-15(美国)
◎IMDb评分 6.7/10 from 161708 users
◎IMDb链接 https://www.imdb.com/title/tt0119081/
◎豆瓣评分 6.8/10 from 19467 users
◎豆瓣链接 https://movie.douban.com/subject/1298041/
◎片  长 96分钟
◎导  演 保罗·安德森 Paul W.S. Anderson
◎编  剧 菲利普·艾斯纳 Philip Eisner
◎主  演 劳伦斯·菲什伯恩 Laurence Fishburne
      山姆·尼尔 Sam Neill
      凯瑟琳·奎南 Kathleen Quinlan
      乔莉·理查德森 Joely Richardson
      诺亚·亨特雷 Noah Huntley
      Teresa May
      埃米莉·布思 Emily Booth
      杰克·诺斯沃迪 Jack Noseworthy
      西恩·帕特维 Sean Pertwee
      詹森·艾萨克 Jason Isaacs
      理查德·琼斯 Richard T. Jones



◎简  介

  未来几十年内,人类探索利用太空的程度不断加深。2040年,利用空间扭曲技术深入宇宙的“新领域号”消失于海王星附近。

  2047年,新领域号突然在海王星发回讯号,内容似乎为求救,于是当年设计新领域号的威尔博士(Sam Neill 饰)受命乘坐营救船“路易与克拉克”号前去施救。船长米勒(Laurence Fishburnes 饰)不甚友好,所幸路易与克拉克号很快按计划与新领域号对接。虽然生命扫描显示新领域号充满生命迹象,但搜寻之后营救队发现所有船员均死亡或消失,新领域号内制造黑洞的核心动力部分产生的震荡破坏了路易与克拉克号的外壳,营救队被迫暂时停留。

  新领域号残留的影像记录将当时血腥的一幕呈现给所有人,同时营救队员们被幻象所困——他们分别看到了自己心中无法释怀的伤痛。队员们陷入了崩溃的边缘。然而更令人惊异的是,新领域号似乎具有了生命。威尔博士相信新领域号的变化是由于它进入过地狱,米勒船长为了拯救队员们和威尔展开了生死对决……


Media Info
General
Complete name : H:\DISC 4\Event Horizon.1997.BDRemux.AI_UPSCAL_3840x2160_amq-11_SDR_Finalalang.mkv
Format : Matroska
Format version : Version 4
File size : 88.7 GiB
Duration : 1 h 35 min
Overall bit rate mode : Variable
Overall bit rate : 132 Mb/s
Encoded date : UTC 2021-03-09 03:06:12
Writing application : mkvmerge v55.0.0 ('Waiting For Space') 64-bit
Writing library : libebml v1.4.2 + libmatroska v1.6.4

Video
ID : 1
Format : AVC
Format/Info : Advanced Video Codec
Format profile : Baseline@L5.1
Format settings : 1 Ref Frames
Format settings, CABAC : No
Format settings, Reference fra : 1 frame
Format settings, GOP : M=1, N=12
Codec ID : V_MPEG4/ISO/AVC
Duration : 1 h 35 min
Bit rate : 127 Mb/s
Width : 3 840 pixels
Height : 2 160 pixels
Display aspect ratio : 16:9
Frame rate mode : Constant
Frame rate : 23.976 (24000/1001) FPS
Color space : YUV
Chroma subsampling : 4:2:0
Bit depth : 8 bits
Scan type : Progressive
Bits/(Pixel*Frame) : 0.641
Stream size : 85.4 GiB (96%)
Writing library : x264 core 157 r2970 5493be8
Encoding settings : cabac=0 / ref=1 / deblock=0:0:0 / analyse=0:0 / me=dia / subme=0 / psy=1 / psy_rd=1.00:0.00 / mixed_ref=0 / me_range=16 / chroma_me=1 / trellis=0 / 8x8dct=0 / cqm=0 / deadzone=21,11 / fast_pskip=1 / chroma_qp_offset=0 / threads=8 / lookahead_threads=1 / sliced_threads=0 / nr=0 / decimate=1 / interlaced=0 / bluray_compat=0 / constrained_intra=0 / bframes=0 / weightp=0 / keyint=12 / keyint_min=1 / scenecut=0 / intra_refresh=0 / rc=crf / mbtree=0 / crf=15.0 / qcomp=0.60 / qpmin=0 / qpmax=69 / qpstep=4 / ip_ratio=1.40 / aq=0
Default : Yes
Forced : No
Color range : Limited
Color primaries : BT.709
Transfer characteristics : BT.709
Matrix coefficients : BT.709

Audio #1
ID : 2
Format : AC-3
Format/Info : Audio Coding 3
Commercial name : Dolby Digital
Codec ID : A_AC3
Duration : 1 h 35 min
Bit rate mode : Constant
Bit rate : 640 kb/s
Channel(s) : 6 channels
Channel layout : L R C LFE Ls Rs
Sampling rate : 48.0 kHz
Frame rate : 31.250 FPS (1536 SPF)
Compression mode : Lossy
Stream size : 439 MiB (0%)
Language : Russian
Service kind : Complete Main
Default : Yes
Forced : Yes

Audio #2
ID : 3
Format : MLP FBA
Format/Info : Meridian Lossless Packing FBA
Commercial name : Dolby TrueHD
Codec ID : A_TRUEHD
Duration : 1 h 35 min
Bit rate mode : Variable
Bit rate : 3 452 kb/s
Maximum bit rate : 5 247 kb/s
Channel(s) : 6 channels
Channel layout : L R C LFE Ls Rs
Sampling rate : 48.0 kHz
Frame rate : 1 200.000 FPS (40 SPF)
Compression mode : Lossless
Stream size : 2.31 GiB (3%)
Language : English
Default : No
Forced : No

Audio #3
ID : 4
Format : AC-3
Format/Info : Audio Coding 3
Commercial name : Dolby Digital
Codec ID : A_AC3
Duration : 1 h 35 min
Bit rate mode : Constant
Bit rate : 640 kb/s
Channel(s) : 6 channels
Channel layout : L R C LFE Ls Rs
Sampling rate : 48.0 kHz
Frame rate : 31.250 FPS (1536 SPF)
Compression mode : Lossy
Stream size : 439 MiB (0%)
Language : English
Service kind : Complete Main
Default : No
Forced : No

Text #1
ID : 5
Format : PGS
Muxing mode : zlib
Codec ID : S_HDMV/PGS
Codec ID/Info : Picture based subtitle format used on BDs/HD-DVDs
Duration : 2 s 669 ms
Bit rate : 49.0 kb/s
Count of elements : 2
Stream size : 16.0 KiB (0%)
Language : Russian
Default : No
Forced : No

Text #2
ID : 6
Format : PGS
Muxing mode : zlib
Codec ID : S_HDMV/PGS
Codec ID/Info : Picture based subtitle format used on BDs/HD-DVDs
Duration : 1 h 30 min
Bit rate : 36.2 kb/s
Count of elements : 2060
Stream size : 23.4 MiB (0%)
Language : Russian
Default : No
Forced : No

Text #3
ID : 7
Format : PGS
Muxing mode : zlib
Codec ID : S_HDMV/PGS
Codec ID/Info : Picture based subtitle format used on BDs/HD-DVDs
Duration : 1 h 26 min
Bit rate : 34.0 kb/s
Count of elements : 2044
Stream size : 21.2 MiB (0%)
Language : English
Default : No
Forced : No

Text #4
ID : 8
Format : PGS
Muxing mode : zlib
Codec ID : S_HDMV/PGS
Codec ID/Info : Picture based subtitle format used on BDs/HD-DVDs
Duration : 1 h 28 min
Bit rate : 35.0 kb/s
Count of elements : 2140
Stream size : 22.1 MiB (0%)
Language : English
Default : No
Forced : No

Text #5
ID : 9
Format : PGS
Muxing mode : zlib
Codec ID : S_HDMV/PGS
Codec ID/Info : Picture based subtitle format used on BDs/HD-DVDs
Duration : 1 h 32 min
Bit rate : 50.9 kb/s
Count of elements : 2370
Stream size : 33.8 MiB (0%)
Language : English
Default : No
Forced : No

Menu
00:00:00.000 : :Глава 01
00:03:00.000 : :Глава 02
00:06:00.000 : :Глава 03
00:09:00.000 : :Глава 04
00:12:00.000 : :Глава 05
00:15:00.000 : :Глава 06
00:18:00.000 : :Глава 07
00:21:00.000 : :Глава 08
00:24:00.000 : :Глава 09
00:27:00.000 : :Глава 10
00:30:00.000 : :Глава 11
00:33:00.000 : :Глава 12
00:36:00.000 : :Глава 13
00:39:00.000 : :Глава 14
00:42:00.000 : :Глава 15
00:45:00.000 : :Глава 16
00:48:00.000 : :Глава 17
00:51:00.000 : :Глава 18
00:54:00.000 : :Глава 19
00:57:00.000 : :Глава 20
01:00:00.000 : :Глава 21
01:03:00.000 : :Глава 22
01:06:00.000 : :Глава 23
01:09:00.000 : :Глава 24
01:12:00.000 : :Глава 25
01:15:00.000 : :Глава 26
01:18:00.000 : :Глава 27
01:21:00.000 : :Глава 28
01:24:00.000 : :Глава 29
01:27:00.000 : :Глава 30
01:30:00.000 : :Глава 31
01:33:00.000 : :Глава 32



4K蓝光REMUX俄版资源,新种资源,推荐使用qBittorrent等下载软件,有条件的推荐115更好的下载软件!
PS:经典影片,有能力字幕爱好的发烧友,请联系本楼主


黑洞表面(88.68GB)Event Horizon.1997.BDRemux.AI_UPSCAL_3840x2160_amq-11_SDR_Finalalang
游客,如果您要查看本帖隐藏内容请回复


1心,爱心.gif

回复

使用道具 举报

0

主题

1081

帖子

3221

积分

4K家园VIP

Rank: 9Rank: 9Rank: 9

积分
3221
发表于 2021-5-25 11:50:00 | 显示全部楼层
感谢分享
回复 支持 反对

使用道具 举报

0

主题

4938

帖子

1万

积分

4K家园VIP

Rank: 9Rank: 9Rank: 9

积分
12136
发表于 2021-5-25 12:08:09 | 显示全部楼层
太好啦&萬分感謝版主的無私發佈分享%
回复 支持 反对

使用道具 举报

0

主题

14

帖子

51

积分

新手上路

Rank: 1

积分
51
发表于 2021-5-25 21:15:31 | 显示全部楼层
谢谢分享
回复

使用道具 举报

0

主题

1249

帖子

3761

积分

4K家园VIP

Rank: 9Rank: 9Rank: 9

积分
3761
发表于 2021-5-30 22:08:58 | 显示全部楼层
这个资源我记得是一套的,楼主还有没有
回复 支持 反对

使用道具 举报

0

主题

1241

帖子

3735

积分

4K家园VIP

Rank: 9Rank: 9Rank: 9

积分
3735
发表于 2021-6-2 09:52:00 | 显示全部楼层
你们要是有4K资源记得分享,别小气
回复 支持 反对

使用道具 举报

1

主题

1239

帖子

3547

积分

4K家园VIP

Rank: 9Rank: 9Rank: 9

积分
3547
发表于 2021-6-2 14:26:49 | 显示全部楼层
我只是看看啊,不说话
回复 支持 反对

使用道具 举报

1

主题

1345

帖子

3887

积分

4K家园VIP

Rank: 9Rank: 9Rank: 9

积分
3887
发表于 2021-6-2 22:06:55 | 显示全部楼层
4K家园资源不错,前排支持
回复 支持 反对

使用道具 举报

您需要登录后才可以回帖 登录 | 立即注册

本版积分规则

精彩图文
Archiver|手机版|TAG|Sitemap|新帖|专题|联系我们:邮箱: 4kjia.com@gmail.com   

4k家园   ©2019