[4K UHD 蓝光原盘] 《间谍游戏 /Spy Game (2001)(俄版)》4K蓝光REMUX 版本下载

[复制链接]

1093

主题

1146

帖子

1万

积分

超级版主

Rank: 8Rank: 8

积分
13602
 楼主| 发表于 2021-9-16 21:19:13 | 显示全部楼层 |阅读模式
本帖最后由 没完没了 于 2021-9-16 21:19 编辑

QQ图片20210514112545_副本_meitu_6.jpg

◎译  名 间谍游戏/谍战
◎片  名 Spy Game
◎年  代 2001
◎产  地 美国,德国,日本,法国
◎类  别 动作 / 惊悚 / 犯罪
◎语  言 英语,德语,阿拉伯语,法语,粤语
◎上映日期 2001-11-19
◎IMDb评分 7.1/10 from 143181 users
◎IMDb链接 https://www.imdb.com/title/tt0266987/
◎豆瓣评分 6.9/10 from 8663 users
◎豆瓣链接 https://movie.douban.com/subject/1305525/
◎片  长 126 分钟
◎导  演 托尼·斯科特 Tony Scott
◎编  剧 大卫·阿莱塔 David Arata
◎主  演 罗伯特·雷德福 Robert Redford
      布拉德·皮特 Brad Pitt
      凯瑟琳·麦克马克 Catherine McCormack
      斯蒂芬·迪兰 Stephen Dillane
      夏洛特·兰普林 Charlotte Rampling
      Zsolt Zágoni
      詹姆斯·恩布里 James Embree
      Géza Schramek
      唐汉平 Hon Ping Tang
      Vincent Wang
      代尔·戴 Dale Dye
      托德·博伊斯 Todd Boyce
      迪米特里·格里特萨斯 Demetri Goritsas
      大卫·谢 David Tse
      本尼迪克特·王 Benedict Wong
      马修·沃克 Matthew Walker
      科林·斯廷顿 Colin Stinton
      Károly Rékasi
      玛丽安娜·琼-巴普蒂斯特 Marianne Jean-Baptiste
      维尔·鲁特根 Wil R?ttgen
      安德里娅·奥斯瓦特 Andrea Osvárt
      戴维·海明斯 David Hemmings
      欧米德·吉亚李利 Omid Djalili
      伊恩·史密斯 Iain Smith
      Balázs Tardy
      詹姆斯·奥布里 James Aubrey
      Ian Boo Khoo
      Pál Oberfrank
      彼得·林卡 Peter Linka
      马修·马什 Matthew Marsh
      斯图尔特·米里根 Stuart Milligan
      提伯·肯德雷西 Tibor Kenderesi
      Anita Deutsch
      弗雷迪·乔·法恩斯沃思 Freddie Joe Farnsworth
      迈克尔·保罗·陈 Michael Paul Chan
      Imre Csuja
      比尔·布尔 Bill Buell
      拉里·布里格曼 Larry Bryggman
      肯·梁 Ken Leung


◎简  介

  CIA(美国中央情报局)探员汤姆?毕晓普(布拉德?彼特饰)在远东某国执行任务失败,随即被当局逮捕,并将于24小时内被执以死刑。此时远在美国,汤姆的搭档,CIA探员内森 D.缪尔(劳勃·瑞福饰)正在为营救汤姆而游说CIA高层。因为涉及国际纠纷,CIA高层偏向牺牲汤姆而换取局势的和平,而内森则认为搭档的生命更加重要。内森与高层吵得不可开交,而在牢狱中的汤姆,回想过去,他与内森一同执行的一个个人物如走马灯般在眼前重现。一对亲密无间的搭档,一段CIA探员的心路历程。汤姆?毕晓普,一个平凡普通的CIA探员形象愈发清晰。他能得救吗?
Media Info
General
Unique ID : 209639183589176393161890457233367694010 (0x9DB709C22CDB8E44932351DC0C12FABA)
Complete name : Spy Game.2001.BDRemux.AI_UPSCAL_3840x2160_alq-12_SDR_Finalalang.mkv
Format : Matroska
Format version : Version 4
File size : 82.8 GiB
Duration : 2 h 6 min
Overall bit rate mode : Variable
Overall bit rate : 93.6 Mb/s
Encoded date : UTC 2021-04-04 18:52:45
Writing application : mkvmerge v55.0.0 ('Waiting For Space') 64-bit
Writing library : libebml v1.4.2 + libmatroska v1.6.4

Video
ID : 1
Format : HEVC
Format/Info : High Efficiency Video Coding
Format profile : Main@L5.2@Main
Codec ID : V_MPEGH/ISO/HEVC
Duration : 2 h 6 min
Bit rate : 62.3 Mb/s
Width : 3 840 pixels
Height : 2 160 pixels
Display aspect ratio : 16:9
Frame rate mode : Constant
Frame rate : 23.976 (24000/1001) FPS
Color space : YUV
Chroma subsampling : 4:2:0
Bit depth : 8 bits
Bits/(Pixel*Frame) : 0.313
Stream size : 55.1 GiB (67%)
Language : English
Default : Yes
Forced : No

Audio #1
ID : 2
Format : AC-3
Format/Info : Audio Coding 3
Commercial name : Dolby Digital
Codec ID : A_AC3
Duration : 2 h 6 min
Bit rate mode : Constant
Bit rate : 224 kb/s
Channel(s) : 2 channels
Channel layout : L R
Sampling rate : 48.0 kHz
Frame rate : 31.250 FPS (1536 SPF)
Compression mode : Lossy
Stream size : 203 MiB (0%)
Title : Дубляж, Первый канал
Language : Russian
Service kind : Complete Main
Default : Yes
Forced : Yes

Audio #2
ID : 3
Format : DTS XLL
Format/Info : Digital Theater Systems
Commercial name : DTS-HD Master Audio
Codec ID : A_DTS
Duration : 2 h 6 min
Bit rate mode : Variable
Bit rate : 4 322 kb/s
Channel(s) : 6 channels
Channel layout : C L R Ls Rs LFE
Sampling rate : 48.0 kHz
Frame rate : 93.750 FPS (512 SPF)
Bit depth : 24 bits
Compression mode : Lossless
Stream size : 3.82 GiB (5%)
Title : Многоголосый закадровый, Blu-ray CEE
Language : Russian
Default : No
Forced : No

Audio #3
ID : 4
Format : DTS XLL
Format/Info : Digital Theater Systems
Commercial name : DTS-HD Master Audio
Codec ID : A_DTS
Duration : 2 h 6 min
Bit rate mode : Variable
Bit rate : 4 300 kb/s
Channel(s) : 6 channels
Channel layout : C L R Ls Rs LFE
Sampling rate : 48.0 kHz
Frame rate : 93.750 FPS (512 SPF)
Bit depth : 24 bits
Compression mode : Lossless
Stream size : 3.80 GiB (5%)
Title : Многоголосый закадровый
Language : Russian
Default : No
Forced : No

Audio #4
ID : 5
Format : DTS XLL
Format/Info : Digital Theater Systems
Commercial name : DTS-HD Master Audio
Codec ID : A_DTS
Duration : 2 h 6 min
Bit rate mode : Variable
Bit rate : 4 319 kb/s
Channel(s) : 6 channels
Channel layout : C L R Ls Rs LFE
Sampling rate : 48.0 kHz
Frame rate : 93.750 FPS (512 SPF)
Bit depth : 24 bits
Compression mode : Lossless
Stream size : 3.82 GiB (5%)
Title : Многоголосый закадровый
Language : Russian
Default : No
Forced : No

Audio #5
ID : 6
Format : DTS XLL
Format/Info : Digital Theater Systems
Commercial name : DTS-HD Master Audio
Codec ID : A_DTS
Duration : 2 h 6 min
Bit rate mode : Variable
Bit rate : 4 303 kb/s
Channel(s) : 6 channels
Channel layout : C L R Ls Rs LFE
Sampling rate : 48.0 kHz
Frame rate : 93.750 FPS (512 SPF)
Bit depth : 24 bits
Compression mode : Lossless
Stream size : 3.81 GiB (5%)
Title : Многоголосый закадровый
Language : Russian
Default : No
Forced : No

Audio #6
ID : 7
Format : DTS XLL
Format/Info : Digital Theater Systems
Commercial name : DTS-HD Master Audio
Codec ID : A_DTS
Duration : 2 h 6 min
Bit rate mode : Variable
Bit rate : 4 309 kb/s
Channel(s) : 6 channels
Channel layout : C L R Ls Rs LFE
Sampling rate : 48.0 kHz
Frame rate : 93.750 FPS (512 SPF)
Bit depth : 24 bits
Compression mode : Lossless
Stream size : 3.81 GiB (5%)
Title : Одноголосый закадровый, А.Гаврилов|
Language : Russian
Default : No
Forced : No

Audio #7
ID : 8
Format : DTS XLL
Format/Info : Digital Theater Systems
Commercial name : DTS-HD Master Audio
Codec ID : A_DTS
Duration : 2 h 6 min
Bit rate mode : Variable
Bit rate : 4 330 kb/s
Channel(s) : 6 channels
Channel layout : C L R Ls Rs LFE
Sampling rate : 48.0 kHz
Frame rate : 93.750 FPS (512 SPF)
Bit depth : 24 bits
Compression mode : Lossless
Stream size : 3.83 GiB (5%)
Title : Одноголосый закадровый, Ю.Живов
Language : Russian
Default : No
Forced : No

Audio #8
ID : 9
Format : DTS
Format/Info : Digital Theater Systems
Codec ID : A_DTS
Duration : 2 h 6 min
Bit rate mode : Constant
Bit rate : 755 kb/s
Channel(s) : 6 channels
Channel layout : C L R Ls Rs LFE
Sampling rate : 48.0 kHz
Frame rate : 93.750 FPS (512 SPF)
Bit depth : 24 bits
Compression mode : Lossy
Stream size : 683 MiB (1%)
Title : Двухголосый закадровый, П.Гланц и И.Королёва
Language : Russian
Default : No
Forced : No

Audio #9
ID : 10
Format : DTS XLL
Format/Info : Digital Theater Systems
Commercial name : DTS-HD Master Audio
Codec ID : A_DTS
Duration : 2 h 6 min
Bit rate mode : Variable
Bit rate : 4 317 kb/s
Channel(s) : 6 channels
Channel layout : C L R Ls Rs LFE
Sampling rate : 48.0 kHz
Frame rate : 93.750 FPS (512 SPF)
Bit depth : 24 bits
Compression mode : Lossless
Stream size : 3.82 GiB (5%)
Language : English
Default : No
Forced : No

Text #1
ID : 11
Format : PGS
Muxing mode : zlib
Codec ID : S_HDMV/PGS
Codec ID/Info : Picture based subtitle format used on BDs/HD-DVDs
Duration : 1 s 1 ms
Bit rate : 54.0 kb/s
Count of elements : 2
Stream size : 6.60 KiB (0%)
Language : Russian
Default : Yes
Forced : Yes

Text #2
ID : 12
Format : PGS
Muxing mode : zlib
Codec ID : S_HDMV/PGS
Codec ID/Info : Picture based subtitle format used on BDs/HD-DVDs
Duration : 2 h 1 min
Bit rate : 39.2 kb/s
Count of elements : 1816
Stream size : 33.9 MiB (0%)
Language : Russian
Default : No
Forced : No

Text #3
ID : 13
Format : PGS
Muxing mode : zlib
Codec ID : S_HDMV/PGS
Codec ID/Info : Picture based subtitle format used on BDs/HD-DVDs
Duration : 2 h 3 min
Bit rate : 67.3 kb/s
Count of elements : 3584
Stream size : 59.5 MiB (0%)
Language : Russian
Default : No
Forced : No

Text #4
ID : 14
Format : PGS
Muxing mode : zlib
Codec ID : S_HDMV/PGS
Codec ID/Info : Picture based subtitle format used on BDs/HD-DVDs
Duration : 2 h 1 min
Bit rate : 72.1 kb/s
Count of elements : 3518
Stream size : 62.8 MiB (0%)
Language : Russian
Default : No
Forced : No

Text #5
ID : 15
Format : PGS
Muxing mode : zlib
Codec ID : S_HDMV/PGS
Codec ID/Info : Picture based subtitle format used on BDs/HD-DVDs
Duration : 1 h 46 min
Bit rate : 585 b/s
Count of elements : 58
Stream size : 457 KiB (0%)
Language : English
Default : No
Forced : No

Text #6
ID : 16
Format : PGS
Muxing mode : zlib
Codec ID : S_HDMV/PGS
Codec ID/Info : Picture based subtitle format used on BDs/HD-DVDs
Duration : 2 h 1 min
Bit rate : 38.5 kb/s
Count of elements : 2898
Stream size : 33.5 MiB (0%)
Language : English
Default : No
Forced : No

Text #7
ID : 17
Format : PGS
Muxing mode : zlib
Codec ID : S_HDMV/PGS
Codec ID/Info : Picture based subtitle format used on BDs/HD-DVDs
Duration : 2 h 1 min
Bit rate : 37.9 kb/s
Count of elements : 2820
Stream size : 33.0 MiB (0%)
Language : English
Default : No
Forced : No

Menu
00:00:00.000 : :Глава 01
00:03:00.000 : :Глава 02
00:06:00.000 : :Глава 03
00:09:00.000 : :Глава 04
00:12:00.000 : :Глава 05
00:15:00.000 : :Глава 06
00:18:00.000 : :Глава 07
00:21:00.000 : :Глава 08
00:24:00.000 : :Глава 09
00:27:00.000 : :Глава 10
00:30:00.000 : :Глава 11
00:33:00.000 : :Глава 12
00:36:00.000 : :Глава 13
00:39:00.000 : :Глава 14
00:42:00.000 : :Глава 15
00:45:00.000 : :Глава 16
00:48:00.000 : :Глава 17
00:51:00.000 : :Глава 18
00:54:00.000 : :Глава 19
00:57:00.000 : :Глава 20
01:00:00.000 : :Глава 21
01:03:00.000 : :Глава 22
01:06:00.000 : :Глава 23
01:09:00.000 : :Глава 24
01:12:00.000 : :Глава 25
01:15:00.000 : :Глава 26
01:18:00.000 : :Глава 27
01:21:00.000 : :Глава 28
01:24:00.000 : :Глава 29
01:27:00.000 : :Глава 30
01:30:00.000 : :Глава 31
01:33:00.000 : :Глава 32
01:36:00.000 : :Глава 33
01:39:00.000 : :Глава 34
01:42:00.000 : :Глава 35
01:45:00.000 : :Глава 36
01:48:00.000 : :Глава 37
01:51:00.000 : :Глава 38
01:54:00.000 : :Глава 39
01:57:00.000 : :Глава 40
02:00:00.000 : :Глава 41
02:03:00.000 : :Глава 42
02:06:00.000 : :Глава 43
4K蓝光REMUX俄版资源,新种资源,推荐使用qBittorrent等下载软件,有条件的推荐115更好的下载软件!
PS:经典影片,有能力字幕爱好的发烧友,请联系本楼主


间谍游戏(82.78GB)Spy Game.2001.BDRemux.AI_UPSCAL_3840x2160_alq-12_SDR_Finalalang
游客,如果您要查看本帖隐藏内容请回复



1心,爱心.gif

上一篇:《火星任务 /Mission to Mars (2000)(俄版)》4K蓝光REMUX 版本下载
下一篇:《一条狗的回家路/A Dog's Way Home (2019) (俄版)》4K高清版本下载
回复

使用道具 举报

46

主题

1460

帖子

4224

积分

4K家园VIP

Rank: 9Rank: 9Rank: 9

积分
4224
发表于 2021-9-16 21:19:18 | 显示全部楼层
楼主这资源不错,我收藏了
回复 支持 反对

使用道具 举报

54

主题

1518

帖子

4342

积分

4K家园VIP

Rank: 9Rank: 9Rank: 9

积分
4342
发表于 2021-9-16 21:19:18 来自手机 | 显示全部楼层
楼猪辛苦了,支持一下分享好资源
回复 支持 反对

使用道具 举报

0

主题

328

帖子

3394

积分

4K家园VIP

Rank: 9Rank: 9Rank: 9

积分
3394
QQ
发表于 2021-9-17 17:31:29 | 显示全部楼层
谢谢楼主分享好资源,辛苦了!
回复 支持 反对

使用道具 举报

您需要登录后才可以回帖 登录 | 立即注册

本版积分规则

精彩图文
Archiver|手机版|TAG|Sitemap|新帖|专题|联系我们:邮箱: 4kjia.com@gmail.com   

4k家园   ©2019