[4K UHD 蓝光原盘] 《寻龙传说 (2021)(俄版)》4K蓝光REMUX 版本下载

[复制链接]

898

主题

936

帖子

1万

积分

超级版主

Rank: 8Rank: 8

积分
11787
 楼主| 发表于 2021-5-14 22:23:18 | 显示全部楼层 |阅读模式
本帖最后由 没完没了 于 2021-5-14 22:50 编辑

QQ图片20210514221857_副本_meitu_5.jpg

◎译  名 寻龙传说/寻龙使者:拉雅(台)/拉雅和最后的龙/瑞亚和最后一条龙/魔龙王国(港)
◎片  名 Raya and The Last Dragon
◎年  代 2021
◎产  地 美国
◎类  别 动画 / 奇幻 / 冒险
◎语  言 英语
◎上映日期 2021-03-05(中国大陆/美国)
◎IMDb评分 8.2/10 from 388 users
◎IMDb链接 https://www.imdb.com/title/tt5109280/
◎豆瓣评分 7.7/10 from 2220 users
◎豆瓣链接 https://movie.douban.com/subject/34804147/
◎片  长 114分钟
◎导  演 唐·霍尔 Don Hall / 卡洛斯·洛佩斯·埃斯特拉达 Carlos López Estrada / 保罗·布里格斯 Paul Briggs / 约翰·瑞帕 John Ripa
◎编  剧 阮基 Qui Nguyen / 阿黛勒·林 Adele Lim / 保罗·布里格斯 Paul Briggs / 唐·霍尔 Don Hall / 卡洛斯·洛佩斯·埃斯特拉达 Carlos López Estrada / 基尔·默里 Kiel Murray / 约翰·瑞帕 John Ripa / 迪恩·威林斯 Dean Wellins
◎主  演 凯莉·玛丽·陈 Kelly Marie Tran
      奥卡菲娜 Awkwafina
      嘉玛·陈 Gemma Chan
      金大贤 Daniel Dae Kim
      吴珊卓 Sandra Oh
      本尼迪克特·王 Benedict Wong
      伊扎克·王 Izaac Wang
      塔莉娅·陈 Thalia Tran
      艾伦·图代克 Alan Tudyk
      迪辰·拉克曼 Dichen Lachman
      帕蒂·哈里森 Patti Harrison
      姜成镐 Sung Kang
      罗斯·巴特勒 Ross Butler
      乔娜·肖 Jona Xiao
      宋静秀 Lucille Soong
      弗朗克西斯·周 Fran?ois Chau
      保罗·扬 Paul Yen
      Liza Del Mundo
      塔妮亚·古纳迪 Tania Gunadi
      Jennie Kwan
      Lucian Perez
      文森特·罗德里格兹三世 Vincent Rodriguez III
      JB Tadena
      赵丽颖 Liying Zhao


◎简  介

  很久以前,在充满奇幻色彩的龙佑之邦,人类和龙和谐地生活在一起。但当一股邪恶的力量袭来,龙牺牲了自己来拯救人类。500年后,同样的邪恶力量卷土重来,只有一个孤独的战士拉雅(凯莉·玛丽·陈 配音)承担重任,追踪传说中的最后一条龙,以修复这块破碎的土地,团结分裂的人民。在她的旅程中,她也会逐渐了解到拯救世界不仅仅需要一条龙,还需要信任和团队合作。


MediaInfo
General
Unique ID : 212658774496835417761511534552920884830 (0x9FFC9715A4EC80229E3E6D9A9314065E)
Complete name : Raya and the Last Dragon (2021).UHD.HDR.BDRemux.2160p.mkv
Format : Matroska
Format version : Version 4
File size : 45.8 GiB
Duration : 1 h 47 min
Overall bit rate mode : Variable
Overall bit rate : 61.1 Mb/s
Movie name : Raya and the Last Dragon (2021) UHD HDR BDRemux
Encoded date : UTC 2021-05-14 02:20:26
Writing application : mkvmerge v8.1.0 ('Psychedelic Postcard') 64bit
Writing library : libebml v1.3.1 + libmatroska v1.4.2
Cover : Yes
Attachments : cover.jpg

Video
ID : 1
Format : HEVC
Format/Info : High Efficiency Video Coding
Format profile : Main 10@L5.1@High
HDR format : SMPTE ST 2086, HDR10 compatible
Codec ID : V_MPEGH/ISO/HEVC
Duration : 1 h 47 min
Bit rate : 51.5 Mb/s
Width : 3 840 pixels
Height : 2 160 pixels
Display aspect ratio : 16:9
Frame rate mode : Constant
Frame rate : 23.976 (24000/1001) FPS
Color space : YUV
Chroma subsampling : 4:2:0 (Type 2)
Bit depth : 10 bits
Bits/(Pixel*Frame) : 0.259
Stream size : 38.7 GiB (84%)
Title : Raya and the Last Dragon (2021)
Writing library : ATEME Titan File 3.9.6 (4.9.6.2)
Language : English
Default : Yes
Forced : No
Color range : Limited
Color primaries : BT.2020
Transfer characteristics : PQ
Matrix coefficients : BT.2020 non-constant
Mastering display color pri : Display P3
Mastering display luminance : min: 0.0050 cd/m2, max: 1000 cd/m2

Audio #1
ID : 2
Format : AC-3
Format/Info : Audio Coding 3
Commercial name : Dolby Digital
Codec ID : A_AC3
Duration : 1 h 47 min
Bit rate mode : Constant
Bit rate : 384 kb/s
Channel(s) : 6 channels
Channel layout : L R C LFE Ls Rs
Sampling rate : 48.0 kHz
Frame rate : 31.250 FPS (1536 SPF)
Compression mode : Lossy
Stream size : 295 MiB (1%)
Title : Дубляж (iTunes)
Language : Russian
Service kind : Complete Main
Default : Yes
Forced : No

Audio #2
ID : 3
Format : MLP FBA 16-ch
Format/Info : Meridian Lossless Packing FBA with 16-channel presentation
Commercial name : Dolby TrueHD with Dolby Atmos
Codec ID : A_TRUEHD
Duration : 1 h 47 min
Bit rate mode : Variable
Bit rate : 8 470 kb/s
Maximum bit rate : 11.2 Mb/s
Channel(s) : 8 channels
Channel layout : L R C LFE Ls Rs Lb Rb
Sampling rate : 48.0 kHz
Frame rate : 1 200.000 FPS (40 SPF)
Compression mode : Lossless
Stream size : 6.36 GiB (14%)
Title : Original
Language : English
Default : No
Forced : No
Number of dynamic objects : 13
Bed channel count : 1 channel
Bed channel configuration : LFE

Audio #3
ID : 4
Format : AC-3
Format/Info : Audio Coding 3
Commercial name : Dolby Digital
Codec ID : A_AC3
Duration : 1 h 47 min
Bit rate mode : Constant
Bit rate : 640 kb/s
Channel(s) : 6 channels
Channel layout : L R C LFE Ls Rs
Sampling rate : 48.0 kHz
Frame rate : 31.250 FPS (1536 SPF)
Compression mode : Lossy
Stream size : 492 MiB (1%)
Title : Оригинал
Language : English
Service kind : Complete Main
Default : No
Forced : No

Text #1
ID : 5
Format : UTF-8
Codec ID : S_TEXT/UTF8
Codec ID/Info : UTF-8 Plain Text
Duration : 51 min 55 s
Bit rate : 1 b/s
Count of elements : 13
Stream size : 530 Bytes (0%)
Title : Форсированные
Language : Russian
Default : Yes
Forced : No

Text #2
ID : 6
Format : UTF-8
Codec ID : S_TEXT/UTF8
Codec ID/Info : UTF-8 Plain Text
Duration : 1 h 45 min
Bit rate : 69 b/s
Count of elements : 1149
Stream size : 53.9 KiB (0%)
Title : Полные
Language : Russian
Default : No
Forced : No

Text #3
ID : 7
Format : UTF-8
Codec ID : S_TEXT/UTF8
Codec ID/Info : UTF-8 Plain Text
Duration : 1 h 37 min
Bit rate : 68 b/s
Count of elements : 1919
Stream size : 48.8 KiB (0%)
Title : SDH
Language : English
Default : No
Forced : No

Menu
00:00:00.000 : en:Chapter 1
00:08:08.697 : en:Chapter 2
00:11:00.159 : en:Chapter 3
00:15:16.415 : en:Chapter 4
00:20:15.339 : en:Chapter 5
00:28:28.749 : en:Chapter 6
00:35:56.905 : en:Chapter 7
00:37:43.261 : en:Chapter 8
00:41:12.595 : en:Chapter 9
00:43:19.388 : en:Chapter 10
00:48:56.392 : en:Chapter 11
00:51:31.505 : en:Chapter 12
00:53:13.732 : en:Chapter 13
00:55:21.068 : en:Chapter 14
00:59:08.044 : en:Chapter 15
01:01:57.380 : en:Chapter 16
01:04:34.579 : en:Chapter 17
01:06:47.295 : en:Chapter 18
01:11:21.819 : en:Chapter 19
01:15:51.213 : en:Chapter 20
01:18:41.008 : en:Chapter 21
01:28:26.217 : en:Chapter 22
01:35:08.286 : en:Chapter 23


4K蓝光REMUX俄版资源,新种资源,推荐使用qBittorrent等下载软件,有条件的推荐115更好的下载软件!
PS:经典影片,有能力字幕爱好的发烧友,请联系本楼主


寻龙传说(45.84GB)Raya and the Last Dragon (2021).UHD.HDR.BDRemux.2160p
游客,如果您要查看本帖隐藏内容请回复



1心,爱心.gif

回复

使用道具 举报

0

主题

1221

帖子

3675

积分

4K家园VIP

Rank: 9Rank: 9Rank: 9

积分
3675
发表于 2021-5-14 22:23:32 来自手机 | 显示全部楼层
4K家园不错,希望这种资源越多越好
回复 支持 反对

使用道具 举报

55

主题

1372

帖子

3970

积分

4K家园VIP

Rank: 9Rank: 9Rank: 9

积分
3970
发表于 2021-5-14 23:54:21 | 显示全部楼层
谢谢楼主
回复 支持 反对

使用道具 举报

1

主题

1200

帖子

3616

积分

4K家园VIP

Rank: 9Rank: 9Rank: 9

积分
3616
发表于 2021-5-15 02:30:07 | 显示全部楼层
你们要是有4K资源记得分享,别小气
回复 支持 反对

使用道具 举报

41

主题

1394

帖子

3980

积分

4K家园VIP

Rank: 9Rank: 9Rank: 9

积分
3980
发表于 2021-5-15 04:53:52 | 显示全部楼层
支持一下楼主,顶起来
回复 支持 反对

使用道具 举报

37

主题

1409

帖子

4005

积分

4K家园VIP

Rank: 9Rank: 9Rank: 9

积分
4005
发表于 2021-5-15 05:07:32 | 显示全部楼层
谢谢楼主
回复 支持 反对

使用道具 举报

0

主题

51

帖子

1903

积分

注册会员

Rank: 2

积分
1903
发表于 2021-5-15 06:31:23 | 显示全部楼层
不错,希望这种资源越多越好
回复 支持 反对

使用道具 举报

0

主题

5006

帖子

1万

积分

4K家园VIP

Rank: 9Rank: 9Rank: 9

积分
12230
发表于 2021-5-15 07:24:55 | 显示全部楼层
太好啦&萬分感謝版主的無私發佈分享%
回复 支持 反对

使用道具 举报

匿名  发表于 2021-5-15 19:45:30
谢谢楼主辛苦了
回复 支持 反对

使用道具

匿名  发表于 2021-5-15 19:46:38
谢谢谢谢谢谢
回复 支持 反对

使用道具

您需要登录后才可以回帖 登录 | 立即注册

本版积分规则

精彩图文
Archiver|手机版|TAG|Sitemap|新帖|专题|联系我们:邮箱: 4kjia.com@gmail.com   

4k家园   ©2019