[4K电影] 鬼马太空猫/The Cat from Outer Space (1978) 4K高清下载/大小12.12GB

[复制链接]

566

主题

593

帖子

5387

积分

超级版主

Rank: 8Rank: 8

积分
5387
 楼主| 发表于 2021-5-17 21:01:14 | 显示全部楼层 |阅读模式
QQ图片20210517205207_副本_meitu_1.jpg

◎译  名 鬼马太空猫/外星猫
◎片  名 The Cat from Outer Space
◎年  代 1978
◎产  地 美国
◎类  别 喜剧 / 科幻 / 家庭
◎语  言 英语
◎上映日期 1978-06-09
◎豆瓣评分 6.9/10 from 75 users
◎豆瓣链接 https://movie.douban.com/subject/1292716/
◎片  长 104 分钟
◎导  演 诺曼·托卡 Norman Tokar
◎编  剧 泰德·基 Ted Key
◎主  演 根·贝里 Ken Berry
      桑迪·邓肯 Sandy Duncan
      哈里·摩根 Harry Morgan
      罗迪·麦克道尔 Roddy McDowall
      McLean Stevenson
      杰西·怀特 Jesse White
      肯·贝里 Ken Berry


◎简  介

  三名科学家帮助一只被困在地球上的外星猫科动物修复其受损的太空船,以便返回家园,但他们的努力受到无能的军方官员和外国间谍的阻碍。  
  一个不明飞行物被困在地球上,被美国政府扣押。它的领航员是一只戴着项圈的猫,有着特殊的能力,包括让猫与人类交流的能力,他躲过了当局的追捕,需要一个名叫弗兰克的人的帮助,才能收回并修理他的船,以便回家。



Video
ID : 1
Format : HEVC
Format/Info : High Efficiency Video Coding
Format profile : Main 10@L5@High
Codec ID : V_MPEGH/ISO/HEVC
Duration : 1 h 43 min
Bit rate : 16.5 Mb/s
Width : 3 840 pixels
Height : 2 160 pixels
Display aspect ratio : 16:9
Frame rate mode : Constant
Frame rate : 23.976 (24000/1001/189150) FPS
Color space : YUV
Chroma subsampling : 4:2:0
Bit depth : 10 bits
Bits/(Pixel*Frame) : 0.083
Stream size : 12.0 GiB (99%)
Default : Yes
Forced : No
Color range : Limited
Color primaries : BT.2020
Transfer characteristics : PQ
Matrix coefficients : BT.2020 non-constant

Audio
ID : 2
Format : E-AC-3
Format/Info : Enhanced AC-3
Commercial name : Dolby Digital Plus
Codec ID : A_EAC3
Duration : 1 h 43 min
Bit rate mode : Constant
Bit rate : 224 kb/s
Channel(s) : 2 channels
Channel layout : L R
Sampling rate : 48.0 kHz
Frame rate : 31.250 FPS (1536 SPF)
Compression mode : Lossy
Delay relative to video : 24 ms
Stream size : 166 MiB (1%)
Language : English
Service kind : Complete Main
Default : Yes
Forced : No

Text #1
ID : 3
Format : UTF-8
Codec ID : S_TEXT/UTF8
Codec ID/Info : UTF-8 Plain Text
Duration : 1 h 43 min
Bit rate : 57 b/s
Count of elements : 1218
Stream size : 43.8 KiB (0%)
Title : European Spanish
Language : Spanish
Default : No
Forced : No

Text #2
ID : 4
Format : UTF-8
Codec ID : S_TEXT/UTF8
Codec ID/Info : UTF-8 Plain Text
Duration : 1 h 42 min
Bit rate : 53 b/s
Count of elements : 1560
Stream size : 39.8 KiB (0%)
Title : Swedish
Language : Swedish
Default : No
Forced : No

Text #3
ID : 5
Format : UTF-8
Codec ID : S_TEXT/UTF8
Codec ID/Info : UTF-8 Plain Text
Duration : 1 h 42 min
Bit rate : 67 b/s
Count of elements : 1636
Stream size : 50.3 KiB (0%)
Title : English
Language : English
Default : No
Forced : No

Text #4
ID : 6
Format : UTF-8
Codec ID : S_TEXT/UTF8
Codec ID/Info : UTF-8 Plain Text
Duration : 1 h 43 min
Bit rate : 57 b/s
Count of elements : 1198
Stream size : 43.6 KiB (0%)
Title : Italian
Language : Italian
Default : No
Forced : No

Text #5
ID : 7
Format : UTF-8
Codec ID : S_TEXT/UTF8
Codec ID/Info : UTF-8 Plain Text
Duration : 1 h 42 min
Bit rate : 49 b/s
Count of elements : 963
Stream size : 37.1 KiB (0%)
Title : Dutch
Language : Dutch
Default : No
Forced : No

Text #6
ID : 8
Format : UTF-8
Codec ID : S_TEXT/UTF8
Codec ID/Info : UTF-8 Plain Text
Duration : 1 h 42 min
Bit rate : 59 b/s
Count of elements : 1573
Stream size : 44.2 KiB (0%)
Title : Danish
Language : Danish
Default : No
Forced : No

Text #7
ID : 9
Format : UTF-8
Codec ID : S_TEXT/UTF8
Codec ID/Info : UTF-8 Plain Text
Duration : 1 h 42 min
Bit rate : 45 b/s
Count of elements : 1534
Stream size : 34.1 KiB (0%)
Title : Finnish
Language : Finnish
Default : No
Forced : No

Text #8
ID : 10
Format : UTF-8
Codec ID : S_TEXT/UTF8
Codec ID/Info : UTF-8 Plain Text
Duration : 1 h 43 min
Bit rate : 64 b/s
Count of elements : 1240
Stream size : 48.6 KiB (0%)
Title : German
Language : German
Default : No
Forced : No

Text #9
ID : 11
Format : UTF-8
Codec ID : S_TEXT/UTF8
Codec ID/Info : UTF-8 Plain Text
Duration : 1 h 42 min
Bit rate : 56 b/s
Count of elements : 1090
Stream size : 42.2 KiB (0%)
Title : French Canadian
Language : French
Default : No
Forced : No

Text #10
ID : 12
Format : UTF-8
Codec ID : S_TEXT/UTF8
Codec ID/Info : UTF-8 Plain Text
Duration : 1 h 42 min
Bit rate : 51 b/s
Count of elements : 1574
Stream size : 38.6 KiB (0%)
Title : Norwegian
Language : Norwegian
Default : No
Forced : No

Text #11
ID : 13
Format : UTF-8
Codec ID : S_TEXT/UTF8
Codec ID/Info : UTF-8 Plain Text
Duration : 1 h 43 min
Bit rate : 60 b/s
Count of elements : 1200
Stream size : 46.1 KiB (0%)
Title : French
Language : French
Default : No
Forced : No

Text #12
ID : 14
Format : UTF-8
Codec ID : S_TEXT/UTF8
Codec ID/Info : UTF-8 Plain Text
Duration : 1 h 43 min
Bit rate : 70 b/s
Count of elements : 1765
Stream size : 52.9 KiB (0%)
Title : English [SDH]
Language : English
Default : No
Forced : No

Text #13
ID : 15
Format : UTF-8
Codec ID : S_TEXT/UTF8
Codec ID/Info : UTF-8 Plain Text
Duration : 1 h 43 min
Bit rate : 59 b/s
Count of elements : 1234
Stream size : 44.9 KiB (0%)
Title : Portuguese
Language : Portuguese
Default : No
Forced : No

Text #14
ID : 16
Format : UTF-8
Codec ID : S_TEXT/UTF8
Codec ID/Info : UTF-8 Plain Text
Duration : 1 h 42 min
Bit rate : 51 b/s
Count of elements : 1089
Stream size : 38.7 KiB (0%)
Title : Spanish
Language : Spanish
Default : No
Forced : No

Menu
00:00:00.000 : Scene 1
00:00:17.000 : Scene 2
00:03:35.000 : Scene 3
00:06:58.000 : Scene 4
00:08:38.000 : Scene 5
00:12:10.000 : Scene 6
00:15:53.000 : Scene 7
00:18:17.000 : Scene 8
00:21:04.000 : Scene 9
00:23:11.000 : Scene 10
00:27:52.000 : Scene 11
00:30:14.000 : Scene 12
00:33:52.000 : Scene 13
00:38:03.000 : Scene 14
00:42:02.000 : Scene 15
00:44:39.000 : Scene 16
00:48:47.000 : Scene 17
00:51:30.000 : Scene 18
00:52:35.000 : Scene 19
00:54:17.000 : Scene 20
00:59:24.000 : Scene 21
01:04:28.000 : Scene 22
01:11:04.000 : Scene 23
01:13:45.000 : Scene 24
01:15:30.000 : Scene 25
01:18:17.000 : Scene 26
01:20:41.000 : Scene 27
01:23:46.000 : Scene 28
01:27:08.000 : Scene 29
01:30:18.000 : Scene 30
01:36:33.000 : Scene 31
01:41:56.000 : Scene 32
01:43:29.000 : Scene 33




游客,如果您要查看本帖隐藏内容请回复



.
回复

使用道具 举报

49

主题

1367

帖子

3927

积分

4K家园VIP

Rank: 9Rank: 9Rank: 9

积分
3927
发表于 2021-5-17 21:01:28 | 显示全部楼层
学习下
回复 支持 反对

使用道具 举报

2

主题

1166

帖子

3514

积分

4K家园VIP

Rank: 9Rank: 9Rank: 9

积分
3514
发表于 2021-5-18 00:33:05 | 显示全部楼层
在撸一遍。。。
回复 支持 反对

使用道具 举报

0

主题

1307

帖子

3773

积分

4K家园VIP

Rank: 9Rank: 9Rank: 9

积分
3773
发表于 2021-5-18 03:13:18 | 显示全部楼层
站位支持
回复 支持 反对

使用道具 举报

0

主题

4938

帖子

1万

积分

4K家园VIP

Rank: 9Rank: 9Rank: 9

积分
12136
发表于 2021-5-18 07:55:16 | 显示全部楼层
太好啦&萬分感謝版主的無私發佈分享%
回复 支持 反对

使用道具 举报

47

主题

1366

帖子

3890

积分

4K家园VIP

Rank: 9Rank: 9Rank: 9

积分
3890
发表于 2021-5-18 08:26:42 | 显示全部楼层
楼猪V5啊
回复 支持 反对

使用道具 举报

36

主题

1308

帖子

3746

积分

4K家园VIP

Rank: 9Rank: 9Rank: 9

积分
3746
发表于 2021-5-18 21:01:54 | 显示全部楼层
路过 帮顶 嘿嘿
回复 支持 反对

使用道具 举报

您需要登录后才可以回帖 登录 | 立即注册

本版积分规则

精彩图文
Archiver|手机版|TAG|Sitemap|新帖|专题|联系我们:邮箱: 4kjia.com@gmail.com   

4k家园   ©2019