[4K记录视频] [国家地理] 毛伊岛(2020)[2160P/MKV/298MB]

[复制链接]

2324

主题

2618

帖子

2万

积分

超级版主

Rank: 8Rank: 8

积分
21970
 楼主| 发表于 2021-5-28 13:51:12 | 显示全部楼层 |阅读模式

毛伊岛 (1).jpg 毛伊岛 (2).jpg 毛伊岛 (3).jpg 毛伊岛 (4).jpg 毛伊岛 (5).jpg 毛伊岛 (6).jpg 毛伊岛 (7).jpg

有关信息
标题:毛伊岛
发行年份: 2020
国家/地区:美国
时长: 00 : 03 : 26
类型: 种类
导演: Jordan Nagasako


关于电影:

         毛伊岛的壮丽美景无处不在:原始的白色沙滩,幽静的瀑布,崎coastline的海岸线,当然还有,令人难以置信的哈​​雷阿卡拉。



General
Complete name                  : E:\电影、MV\毛伊岛.mkv
Format                         : Matroska
Format version                 : Version 4
File size                      : 299 MiB
Duration                       : 3 min 26 s
Overall bit rate               : 12.1 Mb/s
Encoded date                   : UTC 2021-05-17 18:29:20
Writing application            : mkvmerge v56.1.0 ('My Friend') 64-bit
Writing library                : libebml v1.4.2 + libmatroska v1.6.4 / Lavf58.29.100

Video
ID                             : 1
Format                         : VP9
Codec ID                       : V_VP9
Duration                       : 3 min 26 s
Bit rate                       : 12.0 Mb/s
Width                          : 3 840 pixels
Height                         : 2 160 pixels
Display aspect ratio           : 16:9
Frame rate mode                : Constant
Frame rate                     : 23.976 (24000/1001) FPS
Color space                    : YUV
Bits/(Pixel*Frame)             : 0.060
Stream size                    : 296 MiB (99%)
Default                        : Yes
Forced                         : No
Color range                    : Limited
Color primaries                : BT.709
Transfer characteristics       : BT.709
Matrix coefficients            : BT.709

Audio
ID                             : 2
Format                         : Opus
Codec ID                       : A_OPUS
Duration                       : 3 min 26 s
Bit rate                       : 133 kb/s
Channel(s)                     : 2 channels
Channel layout                 : L R
Sampling rate                  : 48.0 kHz
Frame rate                     : 50.002 FPS (960 SPF)
Bit depth                      : 16 bits
Compression mode               : Lossy
Stream size                    : 3.28 MiB (1%)
Default                        : Yes
Forced                         : No



游客,如果您要查看本帖隐藏内容请回复




.
回复

使用道具 举报

4

主题

1591

帖子

4407

积分

4K家园VIP

Rank: 9Rank: 9Rank: 9

积分
4407
发表于 2021-5-28 13:51:19 | 显示全部楼层
纯粹路过,没任何兴趣,仅仅是看在老用户份上回复一下
回复 支持 反对

使用道具 举报

0

主题

5006

帖子

1万

积分

4K家园VIP

Rank: 9Rank: 9Rank: 9

积分
12230
发表于 2021-5-28 15:19:54 | 显示全部楼层
美國毛伊島4k
回复 支持 反对

使用道具 举报

1

主题

1140

帖子

3436

积分

4K家园VIP

Rank: 9Rank: 9Rank: 9

积分
3436
发表于 2021-5-29 10:43:46 | 显示全部楼层
锄禾日当午,发帖真辛苦。谁知坛中餐,帖帖皆辛苦!
回复 支持 反对

使用道具 举报

0

主题

13

帖子

33

积分

新手上路

Rank: 1

积分
33
发表于 2021-5-29 11:46:05 | 显示全部楼层
楼主加油
回复

使用道具 举报

1

主题

1280

帖子

3646

积分

4K家园VIP

Rank: 9Rank: 9Rank: 9

积分
3646
发表于 2021-5-29 22:32:00 来自手机 | 显示全部楼层
元芳你怎么看?
回复 支持 反对

使用道具 举报

0

主题

2

帖子

13

积分

新手上路

Rank: 1

积分
13
发表于 2021-5-30 08:00:35 | 显示全部楼层
支持
回复

使用道具 举报

0

主题

26

帖子

93

积分

新手上路

Rank: 1

积分
93
发表于 2021-6-1 19:52:24 | 显示全部楼层
0l84gfdg dfg dfgsd fgdfg dfg dfg dfg
回复 支持 反对

使用道具 举报

2

主题

1226

帖子

3700

积分

4K家园VIP

Rank: 9Rank: 9Rank: 9

积分
3700
发表于 2021-6-2 18:49:51 | 显示全部楼层
LZ敢整点更有创意的不?兄弟们等着围观捏~
回复 支持 反对

使用道具 举报

2

主题

1241

帖子

3533

积分

4K家园VIP

Rank: 9Rank: 9Rank: 9

积分
3533
发表于 2021-6-3 20:58:45 | 显示全部楼层
看起来不错
回复 支持 反对

使用道具 举报

您需要登录后才可以回帖 登录 | 立即注册

本版积分规则

精彩图文
Archiver|手机版|TAG|Sitemap|新帖|专题|联系我们:邮箱: 4kjia.com@gmail.com   

4k家园   ©2019