2021 WJSN - UNNATURAL 4k [2160P /MP4/291MB]

[复制链接]

2324

主题

2618

帖子

2万

积分

超级版主

Rank: 8Rank: 8

积分
21970
 楼主| 发表于 2021-5-18 21:27:52 | 显示全部楼层 |阅读模式
本帖最后由 叽里呱啦 于 2021-5-18 21:27 编辑

WJSN - UNNATURAL 4k.mp4_20210518_211714.699.jpg WJSN - UNNATURAL 4k.mp4_20210518_211730.906.jpg WJSN - UNNATURAL 4k.mp4_20210518_211743.090.jpg WJSN - UNNATURAL 4k.mp4_20210518_211752.098.jpg WJSN - UNNATURAL 4k.mp4_20210518_211814.569.jpg WJSN - UNNATURAL 4k.mp4_20210518_211759.761.jpg

General
Complete name                  : E:\电影、MV下载\WJSN - UNNATURAL 4k.mp4
Format                         : MPEG-4
Format profile                 : Base Media
Codec ID                       : isom (isom/iso2/avc1/mp41)
File size                      : 291 MiB
Duration                       : 3 min 7 s
Overall bit rate               : 13.0 Mb/s
Writing application            : Lavf58.12.100
exvr                           : EX1.8.2(C1.0.9)

Video
ID                             : 1
Format                         : AVC
Format/Info                    : Advanced Video Codec
Format profile                 : High@L5.1
Format settings                : CABAC / 4 Ref Frames
Format settings, CABAC         : Yes
Format settings, Reference fra : 4 frames
Codec ID                       : avc1
Codec ID/Info                  : Advanced Video Coding
Duration                       : 3 min 7 s
Bit rate                       : 12.8 Mb/s
Width                          : 3 840 pixels
Height                         : 2 160 pixels
Display aspect ratio           : 16:9
Frame rate mode                : Constant
Frame rate                     : 23.976 (23976/1000) FPS
Color space                    : YUV
Chroma subsampling             : 4:2:0
Bit depth                      : 8 bits
Scan type                      : Progressive
Bits/(Pixel*Frame)             : 0.065
Stream size                    : 287 MiB (98%)
Color range                    : Limited
Color primaries                : BT.709
Transfer characteristics       : BT.709
Matrix coefficients            : BT.709
Codec configuration box        : avcC

Audio
ID                             : 2
Format                         : AAC LC
Format/Info                    : Advanced Audio Codec Low Complexity
Codec ID                       : mp4a-40-2
Duration                       : 3 min 7 s
Bit rate mode                  : Constant
Bit rate                       : 192 kb/s
Channel(s)                     : 2 channels
Channel layout                 : L R
Sampling rate                  : 48.0 kHz
Frame rate                     : 46.875 FPS (1024 SPF)
Compression mode               : Lossy
Stream size                    : 4.29 MiB (1%)
Default                        : Yes
Alternate group                : 1



提供更多(4K、8K、16K)高品质MV、演示片、测试片等珍藏版视频,需要的联系本楼主
网盘下载失效不补:链接: https://pan.baidu.com/s/1ysBvaWOsMcmuuYs-wGju4g 提取码:
****此区域为收费内容****    需支付 15 金币后可查看立即购买




.
.
回复

使用道具 举报

1

主题

1131

帖子

3375

积分

4K家园VIP

Rank: 9Rank: 9Rank: 9

积分
3375
发表于 2021-5-18 21:28:03 | 显示全部楼层
垃圾
回复 支持 反对

使用道具 举报

0

主题

1235

帖子

3527

积分

4K家园VIP

Rank: 9Rank: 9Rank: 9

积分
3527
发表于 2021-5-18 22:24:01 | 显示全部楼层
前排支持下了哦~
回复 支持 反对

使用道具 举报

1

主题

1525

帖子

4161

积分

中级会员

Rank: 4

积分
4161
发表于 2021-5-19 00:43:09 来自手机 | 显示全部楼层
这么强,支持楼主,佩服
回复 支持 反对

使用道具 举报

2

主题

1085

帖子

3275

积分

4K家园VIP

Rank: 9Rank: 9Rank: 9

积分
3275
发表于 2021-5-19 14:18:19 来自手机 | 显示全部楼层
一直在看
回复 支持 反对

使用道具 举报

53

主题

1126

帖子

3444

积分

4K家园VIP

Rank: 9Rank: 9Rank: 9

积分
3444
发表于 2021-5-19 18:16:12 | 显示全部楼层
非常好,顶一下
回复 支持 反对

使用道具 举报

0

主题

1

帖子

6

积分

新手上路

Rank: 1

积分
6
发表于 2021-5-19 18:26:08 | 显示全部楼层
支持楼主分享
回复 支持 反对

使用道具 举报

您需要登录后才可以回帖 登录 | 立即注册

本版积分规则

精彩图文
Archiver|手机版|TAG|Sitemap|新帖|专题|联系我们:邮箱: 4kjia.com@gmail.com   

4k家园   ©2019