2021 HOT ISSUE - GRATATA 4k [2160P /MP4/379MB]

[复制链接]

2322

主题

2616

帖子

2万

积分

超级版主

Rank: 8Rank: 8

积分
21942
 楼主| 发表于 2021-6-8 10:39:19 | 显示全部楼层 |阅读模式
HOT ISSUE - GRATATA 4k.mp4_20210520_122734.438.jpg HOT ISSUE - GRATATA 4k.mp4_20210520_122800.214.jpg HOT ISSUE - GRATATA 4k.mp4_20210520_122828.118.jpg HOT ISSUE - GRATATA 4k.mp4_20210520_122903.704.jpg HOT ISSUE - GRATATA 4k.mp4_20210520_123003.641.jpg HOT ISSUE - GRATATA 4k.mp4_20210520_123019.129.jpg


General
Complete name                  : E:\电影、MV\HOT ISSUE - GRATATA 4k.mp4
Format                         : MPEG-4
Format profile                 : Base Media
Codec ID                       : isom (isom/iso2/avc1/mp41)
File size                      : 377 MiB
Duration                       : 3 min 13 s
Overall bit rate               : 16.3 Mb/s
Writing application            : Lavf58.12.100
exvr                           : EX1.8.2(C1.0.9)

Video
ID                             : 1
Format                         : AVC
Format/Info                    : Advanced Video Codec
Format profile                 : High@L5.1
Format settings                : CABAC / 4 Ref Frames
Format settings, CABAC         : Yes
Format settings, Reference fra : 4 frames
Codec ID                       : avc1
Codec ID/Info                  : Advanced Video Coding
Duration                       : 3 min 13 s
Bit rate                       : 16.1 Mb/s
Width                          : 3 840 pixels
Height                         : 1 920 pixels
Display aspect ratio           : 2.000
Frame rate mode                : Constant
Frame rate                     : 23.976 (23976/1000) FPS
Color space                    : YUV
Chroma subsampling             : 4:2:0
Bit depth                      : 8 bits
Scan type                      : Progressive
Bits/(Pixel*Frame)             : 0.091
Stream size                    : 372 MiB (99%)
Codec configuration box        : avcC

Audio
ID                             : 2
Format                         : AAC LC
Format/Info                    : Advanced Audio Codec Low Complexity
Codec ID                       : mp4a-40-2
Duration                       : 3 min 13 s
Bit rate mode                  : Constant
Bit rate                       : 192 kb/s
Channel(s)                     : 2 channels
Channel layout                 : L R
Sampling rate                  : 48.0 kHz
Frame rate                     : 46.875 FPS (1024 SPF)
Compression mode               : Lossy
Stream size                    : 4.43 MiB (1%)
Default                        : Yes
Alternate group                : 1



提供更多(4K、8K、16K)高品质MV、演示片、测试片等珍藏版视频,需要的联系本楼主
网盘下载失效不补:链接: https://pan.baidu.com/s/1OXWJcpxRBvwmWK6WNrVrWA 提取码:
****此区域为收费内容****    需支付 15 金币后可查看立即购买





.
回复

使用道具 举报

49

主题

1367

帖子

3927

积分

4K家园VIP

Rank: 9Rank: 9Rank: 9

积分
3927
发表于 2021-6-8 10:39:28 | 显示全部楼层
楼猪辛苦了,支持一下分享好资源
回复 支持 反对

使用道具 举报

0

主题

4938

帖子

1万

积分

4K家园VIP

Rank: 9Rank: 9Rank: 9

积分
12136
发表于 2021-6-8 22:20:38 | 显示全部楼层
太好啦&萬分感謝版主的無私發佈分享%
回复 支持 反对

使用道具 举报

0

主题

1081

帖子

3221

积分

4K家园VIP

Rank: 9Rank: 9Rank: 9

积分
3221
发表于 2021-6-9 07:04:52 | 显示全部楼层
你们要是有4K资源记得分享,别小气
回复 支持 反对

使用道具 举报

2

主题

1629

帖子

4517

积分

4K家园VIP

Rank: 9Rank: 9Rank: 9

积分
4517
发表于 2021-6-9 15:23:24 | 显示全部楼层
占位编辑
回复 支持 反对

使用道具 举报

0

主题

1655

帖子

4511

积分

中级会员

Rank: 4

积分
4511
发表于 2021-6-11 11:40:16 来自手机 | 显示全部楼层
楼下的接上
回复 支持 反对

使用道具 举报

0

主题

13

帖子

102

积分

新手上路

Rank: 1

积分
102
发表于 2021-6-12 21:19:20 | 显示全部楼层
喜欢看,不错,不错呀!!!
回复 支持 反对

使用道具 举报

0

主题

4

帖子

21

积分

新手上路

Rank: 1

积分
21
发表于 2021-6-13 23:20:36 | 显示全部楼层
謝謝分享
不错,不错呀!!!
回复 支持 反对

使用道具 举报

0

主题

1236

帖子

3718

积分

4K家园VIP

Rank: 9Rank: 9Rank: 9

积分
3718
发表于 7 天前 来自手机 | 显示全部楼层
支持,楼下的跟上哈~
回复 支持 反对

使用道具 举报

您需要登录后才可以回帖 登录 | 立即注册

本版积分规则

精彩图文
Archiver|手机版|TAG|Sitemap|新帖|专题|联系我们:邮箱: 4kjia.com@gmail.com   

4k家园   ©2019