[4K UHD 蓝光原盘] 《连锁阴谋 /Conspiracy Theory (1997) (俄版)》4K蓝光REMUX 版本下载

[复制链接]

897

主题

935

帖子

1万

积分

超级版主

Rank: 8Rank: 8

积分
11773
 楼主| 发表于 2021-6-7 10:13:44 | 显示全部楼层 |阅读模式
QQ图片20210521112636_副本_meitu_1.jpg


◎译  名 连锁阴谋/阴谋理论/绝命大反击/绝密阴谋
◎片  名 Conspiracy Theory
◎年  代 1997
◎产  地 美国
◎类  别 动作/爱情/悬疑/惊悚/犯罪
◎语  言 英语
◎上映日期 1997-08-08
◎IMDb评分  6.7/10 from 92,715 users
◎IMDb链接  https://www.imdb.com/title/tt0118883/
◎豆瓣评分 6.8/10 from 1761 users
◎豆瓣链接 https://douban.com/subject/1293067/
◎片  长 135 分钟
◎导  演 理查德·唐纳 Richard Donner
◎编  剧 布莱恩·海尔格兰德 Brian Helgeland
◎主  演 梅尔·吉布森 Mel Gibson
       朱莉娅·罗伯茨 Julia Roberts
       帕特里克·斯图尔特 Patrick Stewart
       西尔克·科扎特 Cylk Cozart
       Jared Crawford
       约翰·施瓦兹曼 John Schwartzman
       艾迪塔·布里赫塔 Edita Brychta
       彼得·雅各布森 Peter Jacobson
       迪恩·文特斯 Dean Winters
       凯特·贝利 Kate Bayley
       G.A. Aguilar
       Lincoln Simonds


◎简  介

  杰瑞·弗莱彻(梅尔·吉布森 Mel Gibson 饰)是纽约一名普通的出租车司机,他孑然一身,无所事事。大概是过于无聊,杰瑞的脑中经常幻想关于政府的各种阴谋论,并将它们告诉给每一个乘客。似乎有些弄假成真,他日常生活中也谨小慎微,紧张兮兮。杰瑞迷上了美丽的律师艾丽丝·萨顿(朱丽娅·罗伯茨 Julia Roberts 饰),并经常带着他的那些阴谋论新闻找艾丽丝交流。近一段时间,纽约经常出现水管爆裂的情况,目击到FBI曾在现场出现,杰瑞断定这背后定有什么阴谋。这次他没有猜错,很快一群神秘人物就盯上了这个口无遮拦的男人……

  本片荣获1998年大热门娱乐奖最佳女主角(Julia Roberts)、最佳男主角(Mel Gibson)和最佳男配角(Patrick Stewart)三项大奖。



Media Info
General
Unique ID : 285755847497035173745190830494959013143 (0xD6FA930875971D78EA41CEEFB77C0D17)
Complete name : H:\DISC 4\Conspiracy Theory.1997.BDRemux.AI_UPSCAL_3840x2160_alq-12_SDR_Finalalang.mkv
Format : Matroska
Format version : Version 4
File size : 64.0 GiB
Duration : 2 h 15 min
Overall bit rate mode : Variable
Overall bit rate : 67.7 Mb/s
Encoded date : UTC 2021-04-07 21:12:19
Writing application : mkvmerge v56.0.0 ('Strasbourg / St. Denis') 64-bit
Writing library : libebml v1.4.2 + libmatroska v1.6.4

Video
ID : 1
Format : HEVC
Format/Info : High Efficiency Video Coding
Format profile : Main@L5.2@Main
Codec ID : V_MPEGH/ISO/HEVC
Duration : 2 h 15 min
Bit rate : 62.8 Mb/s
Width : 3 840 pixels
Height : 2 160 pixels
Display aspect ratio : 16:9
Frame rate mode : Constant
Frame rate : 23.976 (24000/1001) FPS
Color space : YUV
Chroma subsampling : 4:2:0
Bit depth : 8 bits
Bits/(Pixel*Frame) : 0.316
Stream size : 59.3 GiB (93%)
Language : English
Default : Yes
Forced : No

Audio #1
ID : 2
Format : AC-3
Format/Info : Audio Coding 3
Commercial name : Dolby Digital
Codec ID : A_AC3
Duration : 2 h 15 min
Bit rate mode : Constant
Bit rate : 640 kb/s
Channel(s) : 6 channels
Channel layout : L R C LFE Ls Rs
Sampling rate : 48.0 kHz
Frame rate : 31.250 FPS (1536 SPF)
Compression mode : Lossy
Stream size : 619 MiB (1%)
Language : Russian
Service kind : Complete Main
Default : Yes
Forced : Yes

Audio #2
ID : 3
Format : DTS XLL
Format/Info : Digital Theater Systems
Commercial name : DTS-HD Master Audio
Codec ID : A_DTS
Duration : 2 h 15 min
Bit rate mode : Variable
Bit rate : 4 283 kb/s
Channel(s) : 6 channels
Channel layout : C L R Ls Rs LFE
Sampling rate : 48.0 kHz
Frame rate : 93.750 FPS (512 SPF)
Bit depth : 24 bits
Compression mode : Lossless
Stream size : 4.05 GiB (6%)
Language : English
Default : No
Forced : No

Text #1
ID : 4
Format : PGS
Muxing mode : zlib
Codec ID : S_HDMV/PGS
Codec ID/Info : Picture based subtitle format used on BDs/HD-DVDs
Duration : 2 h 14 min
Bit rate : 30.0 kb/s
Count of elements : 3304
Stream size : 28.9 MiB (0%)
Language : English
Default : No
Forced : No

Text #2
ID : 5
Format : PGS
Muxing mode : zlib
Codec ID : S_HDMV/PGS
Codec ID/Info : Picture based subtitle format used on BDs/HD-DVDs
Duration : 2 h 14 min
Bit rate : 23.0 kb/s
Count of elements : 2812
Stream size : 22.2 MiB (0%)
Language : Russian
Default : No
Forced : No

Menu
00:00:00.000 : :Глава 01
00:03:00.000 : :Глава 02
00:06:00.000 : :Глава 03
00:09:00.000 : :Глава 04
00:12:00.000 : :Глава 05
00:15:00.000 : :Глава 06
00:18:00.000 : :Глава 07
00:21:00.000 : :Глава 08
00:24:00.000 : :Глава 09
00:27:00.000 : :Глава 10
00:30:00.000 : :Глава 11
00:33:00.000 : :Глава 12
00:36:00.000 : :Глава 13
00:39:00.000 : :Глава 14
00:42:00.000 : :Глава 15
00:45:00.000 : :Глава 16
00:48:00.000 : :Глава 17
00:51:00.000 : :Глава 18
00:54:00.000 : :Глава 19
00:57:00.000 : :Глава 20
01:00:00.000 : :Глава 21
01:03:00.000 : :Глава 22
01:06:00.000 : :Глава 23
01:09:00.000 : :Глава 24
01:12:00.000 : :Глава 25
01:15:00.000 : :Глава 26
01:18:00.000 : :Глава 27
01:21:00.000 : :Глава 28
01:24:00.000 : :Глава 29
01:27:00.000 : :Глава 30
01:30:00.000 : :Глава 31
01:33:00.000 : :Глава 32
01:36:00.000 : :Глава 33
01:39:00.000 : :Глава 34
01:42:00.000 : :Глава 35
01:45:00.000 : :Глава 36
01:48:00.000 : :Глава 37
01:51:00.000 : :Глава 38
01:54:00.000 : :Глава 39
01:57:00.000 : :Глава 40
02:00:00.000 : :Глава 41
02:03:00.000 : :Глава 42
02:06:00.000 : :Глава 43
02:09:00.000 : :Глава 44
02:12:00.000 : :Глава 45
02:15:00.000 : :Глава 46



4K蓝光版本资源,因新种资源,推荐使用qBittorrent、uTorrent等下载软件,有条件的推荐115更好的下载软件!

连锁阴谋(64.00GB)Conspiracy Theory.1997.BDRemux.AI_UPSCAL_3840x2160_alq-12_SDR_Finalalang
游客,如果您要查看本帖隐藏内容请回复


1心,爱心.gif
回复

使用道具 举报

57

主题

1427

帖子

4137

积分

4K家园VIP

Rank: 9Rank: 9Rank: 9

积分
4137
发表于 2021-6-7 10:13:48 | 显示全部楼层
前排顶起
回复 支持 反对

使用道具 举报

0

主题

4938

帖子

1万

积分

4K家园VIP

Rank: 9Rank: 9Rank: 9

积分
12136
发表于 2021-6-7 11:02:03 | 显示全部楼层
太好啦&萬分感謝版主的無私發佈分享%
回复 支持 反对

使用道具 举报

1

主题

1043

帖子

3149

积分

4K家园VIP

Rank: 9Rank: 9Rank: 9

积分
3149
发表于 2021-6-7 19:20:22 来自手机 | 显示全部楼层
谢谢楼主
回复 支持 反对

使用道具 举报

0

主题

102

帖子

834

积分

新手上路

Rank: 1

积分
834
发表于 2021-6-7 20:57:55 | 显示全部楼层
支持楼主,辛苦了
回复 支持 反对

使用道具 举报

2

主题

1264

帖子

3812

积分

4K家园VIP

Rank: 9Rank: 9Rank: 9

积分
3812
发表于 2021-6-8 14:53:59 来自手机 | 显示全部楼层
这个资源我记得是一套的,楼主还有没有
回复 支持 反对

使用道具 举报

46

主题

1357

帖子

3907

积分

4K家园VIP

Rank: 9Rank: 9Rank: 9

积分
3907
发表于 2021-6-8 15:58:08 | 显示全部楼层
这个资源我记得是一套的,楼主还有没有
回复 支持 反对

使用道具 举报

1

主题

1129

帖子

3369

积分

4K家园VIP

Rank: 9Rank: 9Rank: 9

积分
3369
发表于 2021-6-8 17:02:31 | 显示全部楼层
楼主这资源不错,我收藏了
回复 支持 反对

使用道具 举报

您需要登录后才可以回帖 登录 | 立即注册

本版积分规则

精彩图文
Archiver|手机版|TAG|Sitemap|新帖|专题|联系我们:邮箱: 4kjia.com@gmail.com   

4k家园   ©2019