[4K UHD 蓝光原盘] 触不到的恋人 / The Lake House (2006)(俄版) 4K蓝光REMUX 版本下载

[复制链接]

898

主题

936

帖子

1万

积分

超级版主

Rank: 8Rank: 8

积分
11787
 楼主| 发表于 2021-6-2 15:05:43 | 显示全部楼层 |阅读模式

QQ图片20210521121743.png

◎译  名 触不到的恋人/情流恋屋/湖边小屋/跳越时空的情书
◎片  名 The Lake House
◎年  代 2006
◎国  家 美国/澳大利亚
◎类  别 剧情/奇幻/爱情
◎语  言 英语
◎上映日期 2006-06-16(美国)
◎IMDb评分  6.8/10 from 104,575 users
◎IMDb链接  http://www.imdb.com/title/tt0410297/
◎豆瓣评分 7.7/10 from 68,726 users
◎豆瓣链接 http://movie.douban.com/subject/1474180/
◎片  长 99 分钟
◎导  演 亚利桑德罗·阿奎斯提 Alejandro Agresti
◎主  演 桑德拉·布洛克 Sandra Bullock
      基努·里维斯 Keanu Reeves
      克里斯托弗·普卢默 Christopher Plummer

◎简  介

  女医生凯特(桑德拉•布洛克 饰)因为工作繁忙,搬离了郊外的河边小屋。临走时她在信箱里放了一封信,希望下一位住客能帮忙处理信件。不久,她来到了旧址,发现信箱里面有一封来自建筑师亚历克斯(基努•里维斯 饰)的来信,信一封接着一封。原来他们所处的年代相差了两年,他们惊讶之余更乐于成为对方的笔友,他们在不同的空间里,一次又一次感受对方的存在。随着爱情的滋生,亚历克斯决定要见凯特一面,但他们都不知道这场跨越时空的恋爱,将会使他们经历何样的景况。


Media Info
General
Unique ID : 150459891006160923093342356039672419643 (0x7131855D18E1F8C927A0C53B5D96553B)
Complete name : H:\DISC 4\Lake House, The.2006.BDRemux.AI_UPSCAL_3840x2160_alq-11_SDR_Finalalang.mkv
Format : Matroska
Format version : Version 4
File size : 44.7 GiB
Duration : 1 h 38 min
Overall bit rate : 64.9 Mb/s
Encoded date : UTC 2021-03-22 08:43:00
Writing application : mkvmerge v55.0.0 ('Waiting For Space') 64-bit
Writing library : libebml v1.4.2 + libmatroska v1.6.4

Video
ID : 1
Format : HEVC
Format/Info : High Efficiency Video Coding
Format profile : Main@L5.2@Main
Codec ID : V_MPEGH/ISO/HEVC
Duration : 1 h 38 min
Bit rate : 62.0 Mb/s
Width : 3 840 pixels
Height : 2 160 pixels
Display aspect ratio : 16:9
Frame rate mode : Constant
Frame rate : 23.976 (24000/1001) FPS
Color space : YUV
Chroma subsampling : 4:2:0
Bit depth : 8 bits
Bits/(Pixel*Frame) : 0.312
Stream size : 42.7 GiB (96%)
Language : English
Default : Yes
Forced : No

Audio #1
ID : 2
Format : AC-3
Format/Info : Audio Coding 3
Commercial name : Dolby Digital
Codec ID : A_AC3
Duration : 1 h 38 min
Bit rate mode : Constant
Bit rate : 448 kb/s
Channel(s) : 6 channels
Channel layout : L R C LFE Ls Rs
Sampling rate : 48.0 kHz
Frame rate : 31.250 FPS (1536 SPF)
Compression mode : Lossy
Stream size : 316 MiB (1%)
Title : Дубляж
Language : Russian
Service kind : Complete Main
Default : Yes
Forced : Yes

Audio #2
ID : 3
Format : AC-3
Format/Info : Audio Coding 3
Commercial name : Dolby Digital
Codec ID : A_AC3
Duration : 1 h 38 min
Bit rate mode : Constant
Bit rate : 448 kb/s
Channel(s) : 6 channels
Channel layout : L R C LFE Ls Rs
Sampling rate : 48.0 kHz
Frame rate : 31.250 FPS (1536 SPF)
Compression mode : Lossy
Stream size : 316 MiB (1%)
Title : Superbit
Language : Russian
Service kind : Complete Main
Default : No
Forced : No

Audio #3
ID : 4
Format : AC-3
Format/Info : Audio Coding 3
Commercial name : Dolby Digital
Codec ID : A_AC3
Duration : 1 h 38 min
Bit rate mode : Constant
Bit rate : 640 kb/s
Channel(s) : 6 channels
Channel layout : L R C LFE Ls Rs
Sampling rate : 48.0 kHz
Frame rate : 31.250 FPS (1536 SPF)
Compression mode : Lossy
Stream size : 451 MiB (1%)
Title : Авторский (одноголосый закадровый)
Language : Russian
Service kind : Complete Main
Default : No
Forced : No

Audio #4
ID : 5
Format : AC-3
Format/Info : Audio Coding 3
Commercial name : Dolby Digital
Codec ID : A_AC3
Duration : 1 h 38 min
Bit rate mode : Constant
Bit rate : 448 kb/s
Channel(s) : 6 channels
Channel layout : L R C LFE Ls Rs
Sampling rate : 48.0 kHz
Frame rate : 31.250 FPS (1536 SPF)
Compression mode : Lossy
Stream size : 316 MiB (1%)
Title : Авторский (одноголосый закадровый)
Language : Russian
Service kind : Complete Main
Default : No
Forced : No

Audio #5
ID : 6
Format : AC-3
Format/Info : Audio Coding 3
Commercial name : Dolby Digital
Codec ID : A_AC3
Duration : 1 h 38 min
Bit rate mode : Constant
Bit rate : 640 kb/s
Channel(s) : 6 channels
Channel layout : L R C LFE Ls Rs
Sampling rate : 48.0 kHz
Frame rate : 31.250 FPS (1536 SPF)
Compression mode : Lossy
Stream size : 451 MiB (1%)
Language : English
Service kind : Complete Main
Default : No
Forced : No

Audio #6
ID : 7
Format : AC-3
Format/Info : Audio Coding 3
Commercial name : Dolby Digital
Format settings : Dolby Surround
Codec ID : A_AC3
Duration : 1 h 38 min
Bit rate mode : Constant
Bit rate : 192 kb/s
Channel(s) : 2 channels
Channel layout : L R
Sampling rate : 48.0 kHz
Frame rate : 31.250 FPS (1536 SPF)
Compression mode : Lossy
Stream size : 135 MiB (0%)
Language : English
Service kind : Complete Main
Default : No
Forced : No

Text #1
ID : 8
Format : PGS
Muxing mode : zlib
Codec ID : S_HDMV/PGS
Codec ID/Info : Picture based subtitle format used on BDs/HD-DVDs
Duration : 1 h 36 min
Bit rate : 48.4 kb/s
Count of elements : 2150
Stream size : 33.4 MiB (0%)
Language : English
Default : No
Forced : No

Text #2
ID : 9
Format : PGS
Muxing mode : zlib
Codec ID : S_HDMV/PGS
Codec ID/Info : Picture based subtitle format used on BDs/HD-DVDs
Duration : 1 h 36 min
Bit rate : 52.2 kb/s
Count of elements : 2224
Stream size : 36.1 MiB (0%)
Language : English
Default : No
Forced : No

Text #3
ID : 10
Format : PGS
Muxing mode : zlib
Codec ID : S_HDMV/PGS
Codec ID/Info : Picture based subtitle format used on BDs/HD-DVDs
Duration : 1 h 31 min
Bit rate : 23.5 kb/s
Count of elements : 2186
Stream size : 15.4 MiB (0%)
Language : Russian
Default : No
Forced : No

Menu
00:00:00.000 : :Глава 01
00:03:00.000 : :Глава 02
00:06:00.000 : :Глава 03
00:09:00.000 : :Глава 04
00:12:00.000 : :Глава 05
00:15:00.000 : :Глава 06
00:18:00.000 : :Глава 07
00:21:00.000 : :Глава 08
00:24:00.000 : :Глава 09
00:27:00.000 : :Глава 10
00:30:00.000 : :Глава 11
00:33:00.000 : :Глава 12
00:36:00.000 : :Глава 13
00:39:00.000 : :Глава 14
00:42:00.000 : :Глава 15
00:45:00.000 : :Глава 16
00:48:00.000 : :Глава 17
00:51:00.000 : :Глава 18
00:54:00.000 : :Глава 19
00:57:00.000 : :Глава 20
01:00:00.000 : :Глава 21
01:03:00.000 : :Глава 22
01:06:00.000 : :Глава 23
01:09:00.000 : :Глава 24
01:12:00.000 : :Глава 25
01:15:00.000 : :Глава 26
01:18:00.000 : :Глава 27
01:21:00.000 : :Глава 28
01:24:00.000 : :Глава 29
01:27:00.000 : :Глава 30
01:30:00.000 : :Глава 31
01:33:00.000 : :Глава 32
01:36:00.000 : :Глава 33



4K蓝光版本资源,因新种资源,推荐使用qBittorrent、uTorrent等下载软件,有条件的推荐115更好的下载软件!

触不到的恋人(44.68GB)Lake House, The.2006.BDRemux.AI_UPSCAL_3840x2160_alq-11_SDR_Finalalang
游客,如果您要查看本帖隐藏内容请回复



1心,爱心.gif

回复

使用道具 举报

56

主题

1431

帖子

4177

积分

4K家园VIP

Rank: 9Rank: 9Rank: 9

积分
4177
发表于 2021-6-2 15:05:47 | 显示全部楼层
感谢分享
回复 支持 反对

使用道具 举报

0

主题

5006

帖子

1万

积分

4K家园VIP

Rank: 9Rank: 9Rank: 9

积分
12230
发表于 2021-6-2 19:11:30 | 显示全部楼层
太好啦&萬分感謝版主的無私發佈分享%
回复 支持 反对

使用道具 举报

0

主题

1205

帖子

3639

积分

4K家园VIP

Rank: 9Rank: 9Rank: 9

积分
3639
发表于 2021-6-2 19:29:20 | 显示全部楼层
你们要是有4K资源记得分享,别小气
回复 支持 反对

使用道具 举报

2

主题

1233

帖子

3553

积分

4K家园VIP

Rank: 9Rank: 9Rank: 9

积分
3553
发表于 2021-6-2 20:18:13 | 显示全部楼层
4K家园不错,希望这种资源越多越好
回复 支持 反对

使用道具 举报

3

主题

1340

帖子

3874

积分

4K家园VIP

Rank: 9Rank: 9Rank: 9

积分
3874
发表于 2021-6-2 22:18:54 | 显示全部楼层
谢谢楼主
回复 支持 反对

使用道具 举报

1

主题

1428

帖子

4132

积分

4K家园VIP

Rank: 9Rank: 9Rank: 9

积分
4132
发表于 2021-6-2 23:14:33 | 显示全部楼层
楼主这资源不错,我收藏了
回复 支持 反对

使用道具 举报

0

主题

61

帖子

4877

积分

中级会员

Rank: 4

积分
4877
发表于 2021-6-3 11:40:46 | 显示全部楼层
太好啦&萬分感謝版主的無私發佈分享
回复 支持 反对

使用道具 举报

0

主题

102

帖子

843

积分

新手上路

Rank: 1

积分
843
发表于 2021-6-3 12:07:48 | 显示全部楼层
感谢楼主分享,辛苦了
回复 支持 反对

使用道具 举报

您需要登录后才可以回帖 登录 | 立即注册

本版积分规则

精彩图文
Archiver|手机版|TAG|Sitemap|新帖|专题|联系我们:邮箱: 4kjia.com@gmail.com   

4k家园   ©2019