[4K UHD 蓝光原盘] 碧海追踪 / Into the Blue (2005)(俄版) 4K蓝光REMUX 版本下载

  [复制链接]

898

主题

936

帖子

1万

积分

超级版主

Rank: 8Rank: 8

积分
11787
 楼主| 发表于 2021-5-22 09:00:01 | 显示全部楼层 |阅读模式

QQ图片20210521133851_副本_meitu_4.jpg

◎译  名 碧海追踪/深海寻宝
◎片  名 Into the Blue
◎年  代 2005
◎产  地 美国
◎类  别 动作 / 惊悚 / 犯罪 / 冒险
◎语  言 英语
◎上映日期 2005-09-30(美国)
◎IMDb评分 5.9/10 from 72872 users
◎IMDb链接 https://www.imdb.com/title/tt0378109/
◎豆瓣评分 6.7/10 from 7402 users
◎豆瓣链接 https://movie.douban.com/subject/1410557/
◎片  长 110 分钟
◎导  演 约翰·斯托克韦尔 John Stockwell
◎主  演 杰西卡·阿尔芭 Jessica Alba
      保罗·沃克 Paul Walker
      艾什丽·斯科特 Ashley Scott
      斯科特·凯恩 Scott Caan
      乔什·布洛林 Josh Brolin
      Chris Taloa
      詹姆斯·弗莱恩 James Frain
      泰森·贝克福德 Tyson Beckford
      德怀恩·阿德维 Dwayne Adway



◎简  介

  风暴之夜,一架飞机在海上失事,坠入无边的大海深处……碧水蓝天的巴哈马海域上,失业潜水员杰拉德(保罗·沃克 Paul Walker 饰)和女友萨曼(杰西卡·阿尔芭 Jessica Alba 饰)预备寻宝深海的沉船宝藏,然而破旧的小船和竞争对手贝茨的打压让他们难以如愿,幸好律师好友布莱斯和女友阿曼达来到,于是四人出海,竟意外的发现了著名海盗的宝藏线索以及一架载满毒品的飞机。布莱斯与阿曼达打起了毒品的主意,但一心挖掘宝藏的杰拉德劝说好友远离毒品。不久,杰拉德陷入财政危机,布莱斯要杰拉德不顾萨曼的劝告以毒品获利支持发掘。而贝茨和毒枭的眼镜,也在暗中盯上了这几个寻宝的好友……


Media Info
General
Unique ID : 48676503876158312962733223361847916684 (0x249EC0EE92647593B20242C49EBE788C)
Complete name : H:\DISC 4\Into the Blue.2005.BDRemux.AI_UPSCAL_3840x2160_ahq-11_SDR_Finalalang.mkv
Format : Matroska
Format version : Version 4
File size : 57.9 GiB
Duration : 1 h 50 min
Overall bit rate mode : Variable
Overall bit rate : 75.2 Mb/s
Encoded date : UTC 2021-03-12 17:32:46
Writing application : mkvmerge v55.0.0 ('Waiting For Space') 64-bit
Writing library : libebml v1.4.2 + libmatroska v1.6.4

Video
ID : 1
Format : HEVC
Format/Info : High Efficiency Video Coding
Format profile : Main@L5.2@Main
Codec ID : V_MPEGH/ISO/HEVC
Duration : 1 h 50 min
Bit rate : 62.6 Mb/s
Width : 3 840 pixels
Height : 2 160 pixels
Display aspect ratio : 16:9
Frame rate mode : Constant
Frame rate : 24.000 FPS
Color space : YUV
Chroma subsampling : 4:2:0
Bit depth : 8 bits
Bits/(Pixel*Frame) : 0.315
Stream size : 48.2 GiB (83%)
Language : English
Default : Yes
Forced : No

Audio #1
ID : 2
Format : AC-3
Format/Info : Audio Coding 3
Commercial name : Dolby Digital
Codec ID : A_AC3
Duration : 1 h 50 min
Bit rate mode : Constant
Bit rate : 448 kb/s
Channel(s) : 6 channels
Channel layout : L R C LFE Ls Rs
Sampling rate : 48.0 kHz
Frame rate : 31.250 FPS (1536 SPF)
Compression mode : Lossy
Stream size : 353 MiB (1%)
Language : Russian
Service kind : Complete Main
Default : Yes
Forced : Yes

Audio #2
ID : 3
Format : AC-3
Format/Info : Audio Coding 3
Commercial name : Dolby Digital
Codec ID : A_AC3
Duration : 1 h 50 min
Bit rate mode : Constant
Bit rate : 384 kb/s
Channel(s) : 6 channels
Channel layout : L R C LFE Ls Rs
Sampling rate : 48.0 kHz
Frame rate : 31.250 FPS (1536 SPF)
Compression mode : Lossy
Stream size : 303 MiB (1%)
Language : Russian
Service kind : Complete Main
Default : No
Forced : No

Audio #3
ID : 4
Format : DTS XLL
Format/Info : Digital Theater Systems
Commercial name : DTS-HD Master Audio
Codec ID : A_DTS
Duration : 1 h 50 min
Bit rate mode : Variable
Bit rate : 3 896 kb/s
Channel(s) : 6 channels
Channel layout : C L R Ls Rs LFE
Sampling rate : 48.0 kHz
Frame rate : 93.750 FPS (512 SPF)
Bit depth : 24 bits
Compression mode : Lossless
Stream size : 3.00 GiB (5%)
Language : Russian
Default : No
Forced : No

Audio #4
ID : 5
Format : DTS XLL
Format/Info : Digital Theater Systems
Commercial name : DTS-HD Master Audio
Codec ID : A_DTS
Duration : 1 h 50 min
Bit rate mode : Variable
Bit rate : 3 896 kb/s
Channel(s) : 6 channels
Channel layout : C L R Ls Rs LFE
Sampling rate : 48.0 kHz
Frame rate : 93.750 FPS (512 SPF)
Bit depth : 24 bits
Compression mode : Lossless
Stream size : 3.00 GiB (5%)
Language : Russian
Default : No
Forced : No

Audio #5
ID : 6
Format : AC-3
Format/Info : Audio Coding 3
Commercial name : Dolby Digital
Codec ID : A_AC3
Duration : 1 h 50 min
Bit rate mode : Constant
Bit rate : 192 kb/s
Channel(s) : 2 channels
Channel layout : L R
Sampling rate : 48.0 kHz
Frame rate : 31.250 FPS (1536 SPF)
Compression mode : Lossy
Stream size : 151 MiB (0%)
Language : Russian
Service kind : Complete Main
Default : No
Forced : No

Audio #6
ID : 7
Format : DTS XLL
Format/Info : Digital Theater Systems
Commercial name : DTS-HD Master Audio
Codec ID : A_DTS
Duration : 1 h 50 min
Bit rate mode : Variable
Bit rate : 3 771 kb/s
Channel(s) : 6 channels
Channel layout : C L R Ls Rs LFE
Sampling rate : 48.0 kHz
Frame rate : 93.750 FPS (512 SPF)
Bit depth : 24 bits
Compression mode : Lossless
Stream size : 2.90 GiB (5%)
Language : English
Default : No
Forced : No

Text #1
ID : 8
Format : PGS
Muxing mode : zlib
Codec ID : S_HDMV/PGS
Codec ID/Info : Picture based subtitle format used on BDs/HD-DVDs
Duration : 1 h 44 min
Bit rate : 30.3 kb/s
Count of elements : 2130
Stream size : 22.6 MiB (0%)
Language : English
Default : No
Forced : No

Text #2
ID : 9
Format : PGS
Muxing mode : zlib
Codec ID : S_HDMV/PGS
Codec ID/Info : Picture based subtitle format used on BDs/HD-DVDs
Duration : 1 h 44 min
Bit rate : 31.5 kb/s
Count of elements : 2166
Stream size : 23.6 MiB (0%)
Language : Russian
Default : No
Forced : No




4K蓝光Remux版本资源,因新种资源,推荐使用qBittorrent、uTorrent等下载软件,有条件的推荐115更好的下载软件!

碧海追踪(57.92GB)Into the Blue.2005.BDRemux.AI_UPSCAL_3840x2160_ahq-11_SDR_Finalalang
游客,如果您要查看本帖隐藏内容请回复


1心,爱心.gif




回复

使用道具 举报

0

主题

1511

帖子

4137

积分

4K家园VIP

Rank: 9Rank: 9Rank: 9

积分
4137
发表于 2021-5-22 09:00:05 | 显示全部楼层
我只是看看啊,不说话
回复 支持 反对

使用道具 举报

1

主题

1261

帖子

3637

积分

4K家园VIP

Rank: 9Rank: 9Rank: 9

积分
3637
发表于 2021-5-22 09:04:26 | 显示全部楼层
谢谢楼主
回复 支持 反对

使用道具 举报

52

主题

1365

帖子

3925

积分

4K家园VIP

Rank: 9Rank: 9Rank: 9

积分
3925
发表于 2021-5-22 11:26:54 | 显示全部楼层
前排顶起
回复 支持 反对

使用道具 举报

0

主题

1072

帖子

3230

积分

4K家园VIP

Rank: 9Rank: 9Rank: 9

积分
3230
发表于 2021-5-22 11:42:33 | 显示全部楼层
4K家园资源最近貌似越来越多了
回复 支持 反对

使用道具 举报

0

主题

5006

帖子

1万

积分

4K家园VIP

Rank: 9Rank: 9Rank: 9

积分
12230
发表于 2021-5-22 13:24:29 | 显示全部楼层
太好啦&萬分感謝版主的無私發佈分享%
回复 支持 反对

使用道具 举报

1

主题

1468

帖子

3974

积分

4K家园VIP

Rank: 9Rank: 9Rank: 9

积分
3974
发表于 2021-5-22 14:22:21 | 显示全部楼层
我只是看看啊,不说话
回复 支持 反对

使用道具 举报

0

主题

302

帖子

2977

积分

4K家园VIP

Rank: 9Rank: 9Rank: 9

积分
2977
QQ
发表于 2021-5-23 23:30:36 | 显示全部楼层
谢谢楼主分享,辛苦了!
回复 支持 反对

使用道具 举报

0

主题

5

帖子

18

积分

新手上路

Rank: 1

积分
18
发表于 2021-5-24 20:23:18 | 显示全部楼层
感謝分享
回复

使用道具 举报

0

主题

513

帖子

1775

积分

注册会员

Rank: 2

积分
1775
发表于 2021-5-25 10:00:55 | 显示全部楼层
感谢楼主分享
回复 支持 反对

使用道具 举报

您需要登录后才可以回帖 登录 | 立即注册

本版积分规则

精彩图文
Archiver|手机版|TAG|Sitemap|新帖|专题|联系我们:邮箱: 4kjia.com@gmail.com   

4k家园   ©2019