[4K UHD 蓝光原盘] 红色星球 / Red Planet (2000)(俄版) 4K蓝光REMUX 版本下载

[复制链接]

897

主题

935

帖子

1万

积分

超级版主

Rank: 8Rank: 8

积分
11773
 楼主| 发表于 2021-5-23 10:00:00 | 显示全部楼层 |阅读模式
QQ图片20210521135015_副本_meitu_6.jpg

◎译  名 红色星球/全面失控/勇闯火星/宇宙深慌
◎片  名 Red Planet
◎年  代 2000
◎产  地 美国/澳大利亚
◎类  别 动作/科幻/惊悚
◎语  言 英语
◎上映日期 2000-11-06
◎IMDb评分  5.7/10 from 53,312 users
◎IMDb链接  https://www.imdb.com/title/tt0199753/
◎豆瓣评分 6.6/10 from 4349 users
◎豆瓣链接 https://douban.com/subject/1304496/
◎片  长 106 分钟
◎导  演 安东尼·霍夫曼 Antony Hoffman
◎编  剧 乔纳森·勒姆金 Jonathan Lemkin / 查克·费尔 Chuck Pfarrer
◎主  演 方·基默 Val Kilmer
         凯瑞-安·莫斯 Carrie-Anne Moss
         本杰明·布拉特 Benjamin Bratt
         汤姆·塞兹摩尔 Tom Sizemore
         西蒙·贝克 Simon Baker
         特伦斯·斯坦普 Terence Stamp


◎简  介


  时间进入2050年,现代文明的发展和人口数量的激增反而令地球不堪重负,原本美丽的星球已经不再适合人类居住。

  为了寻找新的生存之地,科学家们将目光所定在与地球环境最为相似的火星。在过去的几十年里,他们不断向火星发射无人飞船,试图运用现代科技来改善火星上相对恶劣的居住环境。然而当一切初见成果之时,火星上的机器却突然出现故障,移民火星的计划被迫停滞。地球的状况愈来愈让人担忧,为了尽快排除故障,由凯特·鲍曼(凯瑞-安·莫斯 Carrie-Anne Moss 饰)、罗比·加莱尔(方·基默 Val Kilmer 饰)等顶尖科研人员组成的探险队奉命前往人类从未涉足的红色星球。他们的旅程从一开始便注定充满磨难,队员们不仅要面对恶劣的外星环境,他们的友情和信任也承受着巨大的考验……


Media Info
General
Unique ID : 251403624899785100819248424810965380115 (0xBD2293B1D41FD72ACB02E20F87682C13)
Complete name : H:\DISC 4\Red Planet.2000.BDRemux.AI_UPSCAL_3840x2160_alq-10_SDR_Finalalang.mkv
Format : Matroska
Format version : Version 4
File size : 66.1 GiB
Duration : 1 h 46 min
Overall bit rate mode : Variable
Overall bit rate : 88.9 Mb/s
Encoded date : UTC 2021-02-25 13:08:48
Writing application : mkvmerge v53.0.0 ('Fool's Gold') 64-bit
Writing library : libebml v1.4.1 + libmatroska v1.6.2

Video
ID : 1
Format : AVC
Format/Info : Advanced Video Codec
Format profile : Baseline@L5.1
Format settings : 1 Ref Frames
Format settings, CABAC : No
Format settings, Reference fra : 1 frame
Format settings, GOP : M=1, N=12
Codec ID : V_MPEG4/ISO/AVC
Duration : 1 h 46 min
Bit rate : 80.3 Mb/s
Width : 3 840 pixels
Height : 2 160 pixels
Display aspect ratio : 16:9
Frame rate mode : Constant
Frame rate : 23.976 (24000/1001) FPS
Color space : YUV
Chroma subsampling : 4:2:0
Bit depth : 8 bits
Scan type : Progressive
Bits/(Pixel*Frame) : 0.404
Stream size : 59.8 GiB (90%)
Writing library : x264 core 157 r2970 5493be8
Encoding settings : cabac=0 / ref=1 / deblock=0:0:0 / analyse=0:0 / me=dia / subme=0 / psy=1 / psy_rd=1.00:0.00 / mixed_ref=0 / me_range=16 / chroma_me=1 / trellis=0 / 8x8dct=0 / cqm=0 / deadzone=21,11 / fast_pskip=1 / chroma_qp_offset=0 / threads=8 / lookahead_threads=1 / sliced_threads=0 / nr=0 / decimate=1 / interlaced=0 / bluray_compat=0 / constrained_intra=0 / bframes=0 / weightp=0 / keyint=12 / keyint_min=1 / scenecut=0 / intra_refresh=0 / rc=crf / mbtree=0 / crf=15.0 / qcomp=0.60 / qpmin=0 / qpmax=69 / qpstep=4 / ip_ratio=1.40 / aq=0
Default : Yes
Forced : No

Audio #1
ID : 2
Format : AC-3
Format/Info : Audio Coding 3
Commercial name : Dolby Digital
Codec ID : A_AC3
Duration : 1 h 46 min
Bit rate mode : Constant
Bit rate : 384 kb/s
Channel(s) : 6 channels
Channel layout : L R C LFE Ls Rs
Sampling rate : 48.0 kHz
Frame rate : 31.250 FPS (1536 SPF)
Compression mode : Lossy
Stream size : 293 MiB (0%)
Title : Дублированный
Language : Russian
Service kind : Complete Main
Default : Yes
Forced : Yes

Audio #2
ID : 3
Format : AC-3
Format/Info : Audio Coding 3
Commercial name : Dolby Digital
Codec ID : A_AC3
Duration : 1 h 46 min
Bit rate mode : Constant
Bit rate : 192 kb/s
Channel(s) : 2 channels
Channel layout : L R
Sampling rate : 48.0 kHz
Frame rate : 31.250 FPS (1536 SPF)
Compression mode : Lossy
Stream size : 146 MiB (0%)
Title : профессиональный многоголосый
Language : Russian
Service kind : Complete Main
Default : No
Forced : No

Audio #3
ID : 4
Format : DTS XLL
Format/Info : Digital Theater Systems
Commercial name : DTS-HD Master Audio
Codec ID : A_DTS
Duration : 1 h 46 min
Bit rate mode : Variable
Bit rate : 3 714 kb/s
Channel(s) : 6 channels
Channel layout : C L R Ls Rs LFE
Sampling rate : 48.0 kHz
Frame rate : 93.750 FPS (512 SPF)
Bit depth : 24 bits
Compression mode : Lossless
Stream size : 2.76 GiB (4%)
Title : авторский
Language : Russian
Default : No
Forced : No

Audio #4
ID : 5
Format : AC-3
Format/Info : Audio Coding 3
Commercial name : Dolby Digital
Codec ID : A_AC3
Duration : 1 h 46 min
Bit rate mode : Constant
Bit rate : 384 kb/s
Channel(s) : 6 channels
Channel layout : L R C LFE Ls Rs
Sampling rate : 48.0 kHz
Frame rate : 31.250 FPS (1536 SPF)
Compression mode : Lossy
Stream size : 293 MiB (0%)
Title : авторский
Language : Russian
Service kind : Complete Main
Default : No
Forced : No

Audio #5
ID : 6
Format : DTS XLL
Format/Info : Digital Theater Systems
Commercial name : DTS-HD Master Audio
Codec ID : A_DTS
Duration : 1 h 46 min
Bit rate mode : Variable
Bit rate : 3 806 kb/s
Channel(s) : 6 channels
Channel layout : C L R Ls Rs LFE
Sampling rate : 48.0 kHz
Frame rate : 93.750 FPS (512 SPF)
Bit depth : 24 bits
Compression mode : Lossless
Stream size : 2.83 GiB (4%)
Language : English
Default : No
Forced : No

Text #1
ID : 7
Format : PGS
Muxing mode : zlib
Codec ID : S_HDMV/PGS
Codec ID/Info : Picture based subtitle format used on BDs/HD-DVDs
Duration : 1 h 41 min
Bit rate : 18.9 kb/s
Count of elements : 2339
Stream size : 13.8 MiB (0%)
Language : Japanese
Default : Yes
Forced : No

Text #2
ID : 8
Format : PGS
Muxing mode : zlib
Codec ID : S_HDMV/PGS
Codec ID/Info : Picture based subtitle format used on BDs/HD-DVDs
Duration : 1 h 45 min
Bit rate : 28.3 kb/s
Count of elements : 2296
Stream size : 21.5 MiB (0%)
Language : English
Default : No
Forced : No

Text #3
ID : 9
Format : PGS
Muxing mode : zlib
Codec ID : S_HDMV/PGS
Codec ID/Info : Picture based subtitle format used on BDs/HD-DVDs
Duration : 1 h 41 min
Bit rate : 28.6 kb/s
Count of elements : 2140
Stream size : 20.8 MiB (0%)
Language : Russian
Default : No
Forced : No

Menu
00:00:00.000 : :Глава 01
00:03:00.000 : :Глава 02
00:06:00.000 : :Глава 03
00:09:00.000 : :Глава 04
00:12:00.000 : :Глава 05
00:15:00.000 : :Глава 06
00:18:00.000 : :Глава 07
00:21:00.000 : :Глава 08
00:24:00.000 : :Глава 09
00:27:00.000 : :Глава 10
00:30:00.000 : :Глава 11
00:33:00.000 : :Глава 12
00:36:00.000 : :Глава 13
00:39:00.000 : :Глава 14
00:42:00.000 : :Глава 15
00:45:00.000 : :Глава 16
00:48:00.000 : :Глава 17
00:51:00.000 : :Глава 18
00:54:00.000 : :Глава 19
00:57:00.000 : :Глава 20
01:00:00.000 : :Глава 21
01:03:00.000 : :Глава 22
01:06:00.000 : :Глава 23
01:09:00.000 : :Глава 24
01:12:00.000 : :Глава 25
01:15:00.000 : :Глава 26
01:18:00.000 : :Глава 27
01:21:00.000 : :Глава 28
01:24:00.000 : :Глава 29
01:27:00.000 : :Глава 30
01:30:00.000 : :Глава 31
01:33:00.000 : :Глава 32
01:36:00.000 : :Глава 33
01:39:00.000 : :Глава 34
01:42:00.000 : :Глава 35
01:45:00.000 : :Глава 36



4K蓝光版本资源,因新种资源,推荐使用qBittorrent、uTorrent等下载软件,有条件的推荐115更好的下载软件!

红色星球(66.11GB)Red Planet.2000.BDRemux.AI_UPSCAL_3840x2160_alq-10_SDR_Finalalang
游客,如果您要查看本帖隐藏内容请回复



1心,爱心.gif


回复

使用道具 举报

48

主题

1416

帖子

4070

积分

4K家园VIP

Rank: 9Rank: 9Rank: 9

积分
4070
发表于 2021-5-23 10:00:14 | 显示全部楼层
谢谢楼主
回复 支持 反对

使用道具 举报

2

主题

1084

帖子

3272

积分

4K家园VIP

Rank: 9Rank: 9Rank: 9

积分
3272
发表于 2021-5-23 10:15:58 | 显示全部楼层
谢谢楼主
回复 支持 反对

使用道具 举报

0

主题

4938

帖子

1万

积分

4K家园VIP

Rank: 9Rank: 9Rank: 9

积分
12136
发表于 2021-5-23 11:27:18 | 显示全部楼层
太好啦&萬分感謝版主的無私發佈分享%
回复 支持 反对

使用道具 举报

4

主题

1316

帖子

3792

积分

4K家园VIP

Rank: 9Rank: 9Rank: 9

积分
3792
发表于 2021-5-23 12:10:04 来自手机 | 显示全部楼层
4K家园不错,希望这种资源越多越好
回复 支持 反对

使用道具 举报

1

主题

1043

帖子

3149

积分

4K家园VIP

Rank: 9Rank: 9Rank: 9

积分
3149
发表于 2021-5-23 12:16:50 来自手机 | 显示全部楼层
楼猪辛苦了,支持一下分享好资源
回复 支持 反对

使用道具 举报

1

主题

1122

帖子

3384

积分

4K家园VIP

Rank: 9Rank: 9Rank: 9

积分
3384
发表于 2021-5-23 17:32:09 | 显示全部楼层
谢谢楼主
回复 支持 反对

使用道具 举报

您需要登录后才可以回帖 登录 | 立即注册

本版积分规则

精彩图文
Archiver|手机版|TAG|Sitemap|新帖|专题|联系我们:邮箱: 4kjia.com@gmail.com   

4k家园   ©2019