[4K电影] 不洁 / The Unholy (2021) 4K高清下载/10.75GB

[复制链接]

566

主题

593

帖子

5387

积分

超级版主

Rank: 8Rank: 8

积分
5387
 楼主| 发表于 2021-5-25 17:39:26 | 显示全部楼层 |阅读模式

QQ图片20210525173324_副本.png

◎译  名 不洁/Shrine/圣地/邪恶/邪恶玛利亚
◎片  名 The Unholy
◎年  代 2021
◎产  地 美国
◎类  别 恐怖
◎语  言 英语
◎上映日期 2021-04-02(美国)
◎豆瓣评分 /10 from 0 users
◎豆瓣链接 https://movie.douban.com/subject/30430743/
◎导  演 埃文·斯彼里奥托普洛斯 Evan Spiliotopoulos
◎编  剧 詹姆斯·赫伯特 James Herbert / 埃文·斯彼里奥托普洛斯 Evan Spiliotopoulos
◎主  演 杰弗里·迪恩·摩根 Jeffrey Dean Morgan
      加利·艾尔维斯 Cary Elwes
      威廉姆·赛德勒 William Sadler
      克里克特·布朗 Cricket Brown
      凯蒂·阿赛尔顿 Katie Aselton
      迪奥戈·莫加多 Diogo Morgado
      克里斯蒂尼·亚当斯 Christine Adams
      玛丽娜·马泽帕 Marina Mazepa
      吉塞拉·奇佩 Gisela Chipe
      珍妮尔·费格利 Janelle Feigley
      比尔·索普 Bill Thorpe
      丹尼·柯伯 Danny Corbo
      达斯汀·塔克 Dustin Tucker
      塞莱斯特·奥利瓦 Celeste Oliva
      米尔·戴维斯 Mere Davis
      琪拉·皮查多 Kiara Pichardo
      桑尼·科尔博 Sonny Corbo
      迈克尔·施特劳斯 Michael Strauss
      斯蒂芬·奥尼尔·马丁 Stephen O'Neil Martin
      凯文·芬内西 Kevin Fennessy
      迈克·温特 Mike Wendt
      蒂姆·斯蒂罗兹 Tim Estiloz
      阿德里安·M·蒙波因特 Adrian M. Mompoint
      马特·索西亚 Matt Soscia
      乔丹娜·布鲁斯特 Jordana Brewster


◎简  介

  本片讲述一位听障女孩爱丽丝在圣母玛利亚的一次探视之后莫名其妙地恢复了视听功能,甚至还能给人治病。这一消息立刻传开,人们纷涌而至,感受奇迹,一位失了名声的记者(Jeffrey扮演)想要一探究竟并借此找回名声。随着可怕的事情一件件发生,他开始质疑这些现象是圣母玛利亚的“杰作”,还是更邪恶的存在?
Video
ID : 1
Format : HEVC
Format/Info : High Efficiency Video Coding
Format profile : Main@L5@Main
Codec ID : V_MPEGH/ISO/HEVC
Duration : 1 h 39 min
Bit rate : 14.8 Mb/s
Width : 3 840 pixels
Height : 1 600 pixels
Display aspect ratio : 2.40:1
Frame rate mode : Constant
Frame rate : 23.976 (24000/1001/189150) FPS
Color space : YUV
Chroma subsampling : 4:2:0
Bit depth : 8 bits
Bits/(Pixel*Frame) : 0.101
Stream size : 10.3 GiB (96%)
Default : Yes
Forced : No
Color range : Limited
Color primaries : BT.709
Transfer characteristics : BT.709
Matrix coefficients : BT.709

Audio
ID : 2
Format : E-AC-3
Format/Info : Enhanced AC-3
Commercial name : Dolby Digital Plus
Codec ID : A_EAC3
Duration : 1 h 39 min
Bit rate mode : Constant
Bit rate : 640 kb/s
Channel(s) : 6 channels
Channel layout : L R C LFE Ls Rs
Sampling rate : 48.0 kHz
Frame rate : 31.250 FPS (1536 SPF)
Compression mode : Lossy
Stream size : 455 MiB (4%)
Title : English
Language : English
Service kind : Complete Main
Default : No
Forced : No

Text #1
ID : 3
Format : UTF-8
Codec ID : S_TEXT/UTF8
Codec ID/Info : UTF-8 Plain Text
Duration : 1 h 38 min
Bit rate : 52 b/s
Count of elements : 1357
Stream size : 37.4 KiB (0%)
Title : English [SDH]
Language : English
Default : No
Forced : No

Text #2
ID : 4
Format : UTF-8
Codec ID : S_TEXT/UTF8
Codec ID/Info : UTF-8 Plain Text
Duration : 1 h 30 min
Bit rate : 47 b/s
Count of elements : 1052
Stream size : 31.9 KiB (0%)
Title : English
Language : English
Default : No
Forced : No



游客,如果您要查看本帖隐藏内容请回复

不洁(10.75GB)The.Unholy.2021.2160p.AMZN.WEB-DL.x265.8bit.SDR.DDP5.1-CM.torrent (54.37 KB, 售价: 9 金币)
回复

使用道具 举报

0

主题

1508

帖子

4128

积分

4K家园VIP

Rank: 9Rank: 9Rank: 9

积分
4128
发表于 2021-5-25 17:39:55 来自手机 | 显示全部楼层
不错 支持一个了
回复 支持 反对

使用道具 举报

58

主题

1444

帖子

4142

积分

4K家园VIP

Rank: 9Rank: 9Rank: 9

积分
4142
发表于 2021-5-25 17:58:57 | 显示全部楼层
看帖要回,回帖才健康,在踩踩,楼主辛苦了!
回复 支持 反对

使用道具 举报

1

主题

1200

帖子

3616

积分

4K家园VIP

Rank: 9Rank: 9Rank: 9

积分
3616
发表于 2021-5-25 18:54:42 | 显示全部楼层
路过的帮顶
回复 支持 反对

使用道具 举报

56

主题

1431

帖子

4177

积分

4K家园VIP

Rank: 9Rank: 9Rank: 9

积分
4177
发表于 2021-5-25 19:35:35 | 显示全部楼层
众里寻他千百度,蓦然回首在这里!
回复 支持 反对

使用道具 举报

0

主题

1589

帖子

4279

积分

4K家园VIP

Rank: 9Rank: 9Rank: 9

积分
4279
发表于 2021-5-25 20:44:43 来自手机 | 显示全部楼层
谢谢楼主
回复 支持 反对

使用道具 举报

0

主题

3

帖子

16

积分

新手上路

Rank: 1

积分
16
发表于 2021-5-25 21:14:47 | 显示全部楼层
谢谢
回复

使用道具 举报

0

主题

1

帖子

10

积分

新手上路

Rank: 1

积分
10
发表于 2021-5-28 22:34:20 | 显示全部楼层
不错 支持一个了
回复 支持 反对

使用道具 举报

您需要登录后才可以回帖 登录 | 立即注册

本版积分规则

精彩图文
Archiver|手机版|TAG|Sitemap|新帖|专题|联系我们:邮箱: 4kjia.com@gmail.com   

4k家园   ©2019