[4K电影] 蚁哥正传 / Antz (1998) 4K高清下载/11.41GB

[复制链接]

566

主题

593

帖子

5378

积分

超级版主

Rank: 8Rank: 8

积分
5378
 楼主| 发表于 2021-5-27 22:19:29 | 显示全部楼层 |阅读模式
QQ图片20210527221722_副本.png

◎译  名 蚁哥正传/小蚁雄兵/蚂蚁
◎片  名 Antz
◎年  代 1998
◎产  地 美国
◎类  别 喜剧 / 动画 / 冒险
◎语  言 英语
◎上映日期 1998-10-02
◎豆瓣评分 7.0/10 from 6199 users
◎豆瓣链接 https://movie.douban.com/subject/1293816/
◎片  长 83 分钟
◎导  演 埃里克·达尼尔 Eric Darnell / 提姆·约翰森 Tim Johnson
◎编  剧 托德·奥尔科特 Todd Alcott / 克里斯·韦兹 Chris Weitz / 保罗·韦兹 Paul Weitz
◎主  演 伍迪·艾伦 Woody Allen
      丹·艾克罗伊德 Dan Aykroyd
      安妮·班克罗夫特 Anne Bancroft
      简·库丁 Jane Curtin
      丹尼·格洛弗 Danny Glover
      吉恩·哈克曼 Gene Hackman
      詹妮弗·洛佩兹 Jennifer Lopez
      约翰·马奥尼 John Mahoney
      保罗·马祖斯基 Paul Mazursky
      格兰特·肖德 Grant Shaud
      西尔维斯特·史泰龙 Sylvester Stallone
      莎朗·斯通 Sharon Stone
      克里斯托弗·沃肯 Christopher Walken
      吉姆·卡明斯 Jim Cummings
      Jerry Sroka
      艾普尔·温切尔 April Winchell
      埃里克·达尼尔 Eric Darnell

◎标  签 动画 | 美国 | 梦工厂 | 1998 | 动画片 | 美国电影 | 卡通 | 电影

◎简  介

  蚂蚁Z对蚂蚁王国的现状十分不满,但天生胆小的他也只能在一边唠唠叨叨,幸好友兵蚁威的保护,瘦弱的Z才不会被欺负。一次偶然机会,Z遇上了逃跑出皇宫的公主宝拉,宝拉因为被母后安排即将与曼将军结婚而不满才离家出走的。在俱乐部里,宝拉主动邀请不起眼的Z跳舞;Z无意中得知了宝拉的身份,跑去和威调换了身份假扮士兵为了能在阅兵中和公主见面。曼将军不仅是个战争狂人,对蚂蚁王国还有着不可告人的阴谋。Z被派上了战场,靠躲在坑内逃过了一劫,被曼将军奉为英雄。但曼将军看出了Z暗恋公主,想把他杀害。情急之下,Z绑架公主逃了出去……

◎获奖情况

  第27届动画安妮奖 ?(1999)
  最佳导演(提名) 提姆·约翰森
  最佳编剧(提名) 克里斯·韦兹?/?托德·奥尔科特?/?保罗·韦兹
  最佳配乐(提名) 约翰·鲍威尔?/?哈里·格雷格森-威廉姆斯
  最佳艺术指导(提名) 约翰·贝尔
Video
ID : 1
Format : HEVC
Format/Info : High Efficiency Video Coding
Format profile : Main@L5@High
Codec ID : V_MPEGH/ISO/HEVC
Duration : 1 h 23 min
Bit rate : 14.9 Mb/s
Width : 3 840 pixels
Height : 2 160 pixels
Display aspect ratio : 16:9
Frame rate mode : Constant
Frame rate : 23.976 (24000/1001/189150) FPS
Color space : YUV
Chroma subsampling : 4:2:0
Bit depth : 8 bits
Bits/(Pixel*Frame) : 0.075
Stream size : 8.70 GiB (76%)
Default : Yes
Forced : No
Color range : Limited
Color primaries : BT.709
Transfer characteristics : BT.709
Matrix coefficients : BT.709

Audio #1
ID : 2
Format : DTS XLL
Format/Info : Digital Theater Systems
Commercial name : DTS-HD Master Audio
Codec ID : A_DTS
Duration : 1 h 23 min
Bit rate mode : Variable
Bit rate : 4 207 kb/s
Channel(s) : 6 channels
Channel layout : C L R Ls Rs LFE
Sampling rate : 48.0 kHz
Frame rate : 93.750 FPS (512 SPF)
Bit depth : 24 bits
Compression mode : Lossless
Delay relative to video : 4 ms
Stream size : 2.45 GiB (21%)
Title : DTS-HD MA 5.1
Language : English
Default : Yes
Forced : No

Audio #2
ID : 3
Format : AAC LC
Format/Info : Advanced Audio Codec Low Complexity
Codec ID : A_AAC-2
Duration : 1 h 23 min
Bit rate : 445 kb/s
Channel(s) : 6 channels
Channel layout : C L R Ls Rs LFE
Sampling rate : 48.0 kHz
Frame rate : 46.875 FPS (1024 SPF)
Compression mode : Lossy
Stream size : 265 MiB (2%)
Language : English
Default : No
Forced : No

Text
ID : 4
Format : UTF-8
Codec ID : S_TEXT/UTF8
Codec ID/Info : UTF-8 Plain Text
Duration : 1 h 18 min
Bit rate : 79 b/s
Count of elements : 1140
Stream size : 46.1 KiB (0%)
Title : English
Language : English
Default : Yes
Forced : No

Menu
00:00:00.000 : Chapter 1
00:03:16.988 : Chapter 2
00:08:27.340 : Chapter 3
00:11:20.096 : Chapter 4
00:17:46.232 : Chapter 5
00:20:42.992 : Chapter 6
00:24:53.492 : Chapter 7
00:29:05.535 : Chapter 8
00:33:13.408 : Chapter 9
00:36:04.037 : Chapter 10
00:42:42.977 : Chapter 11
00:48:26.070 : Chapter 12
00:56:07.739 : Chapter 13
00:58:58.660 : Chapter 14
01:04:57.936 : Chapter 15
01:07:44.978 : Chapter 16
01:13:33.826 : Chapter 17
01:18:11.103 : Chapter 18




游客,如果您要查看本帖隐藏内容请回复





.
回复

使用道具 举报

0

主题

1236

帖子

3718

积分

4K家园VIP

Rank: 9Rank: 9Rank: 9

积分
3718
发表于 2021-5-27 22:20:45 | 显示全部楼层
还有没有别的资源,多分享些
回复 支持 反对

使用道具 举报

0

主题

4921

帖子

1万

积分

4K家园VIP

Rank: 9Rank: 9Rank: 9

积分
12106
发表于 2021-5-27 22:27:01 | 显示全部楼层
太好啦&萬分感謝版主的無私發佈分享%
回复 支持 反对

使用道具 举报

42

主题

1419

帖子

4057

积分

4K家园VIP

Rank: 9Rank: 9Rank: 9

积分
4057
发表于 2021-5-28 11:10:03 | 显示全部楼层
元芳你怎么看?
回复 支持 反对

使用道具 举报

0

主题

1

帖子

6

积分

新手上路

Rank: 1

积分
6
发表于 2021-5-28 15:02:55 来自手机 | 显示全部楼层
咋看?
回复

使用道具 举报

1

主题

1300

帖子

3736

积分

4K家园VIP

Rank: 9Rank: 9Rank: 9

积分
3736
发表于 2021-5-28 23:33:43 | 显示全部楼层
围观 围观 沙发在哪里!!!
回复 支持 反对

使用道具 举报

4

主题

1559

帖子

4251

积分

4K家园VIP

Rank: 9Rank: 9Rank: 9

积分
4251
发表于 2021-5-31 14:04:24 | 显示全部楼层
非常好,顶一下
回复 支持 反对

使用道具 举报

1

主题

1424

帖子

4120

积分

4K家园VIP

Rank: 9Rank: 9Rank: 9

积分
4120
发表于 2021-6-1 15:30:27 | 显示全部楼层
支持,楼下的跟上哈~
回复 支持 反对

使用道具 举报

您需要登录后才可以回帖 登录 | 立即注册

本版积分规则

精彩图文
Archiver|手机版|TAG|Sitemap|新帖|专题|联系我们:邮箱: 4kjia.com@gmail.com   

4k家园   ©2019