[4K电影] 超级苍蝇 / SuperFly (2018) 4K高清下载/64.16GB

[复制链接]

566

主题

593

帖子

5378

积分

超级版主

Rank: 8Rank: 8

积分
5378
 楼主| 发表于 2021-5-27 23:02:51 | 显示全部楼层 |阅读模式
QQ图片20210527225320_副本_meitu_7.jpg

◎译  名 超级苍蝇
◎片  名 SuperFly
◎年  代 2018
◎产  地 美国
◎类  别 动作/犯罪/惊悚
◎语  言 英语
◎上映日期 2018-06-13(美国)
◎上映日期 1994-02-11(美国)
◎IMDb评分 0/10 from 0 users
◎IMDb链接 https://www.imdb.com/title/tt7690670/
◎豆瓣评分 5.4/10 from 522 users
◎豆瓣链接 https://movie.douban.com/subject/27610991/

◎片  长 116分钟
◎导  演 X导演 Director X.
◎主  演 詹妮弗·莫里森 Jennifer Morrison
      特雷沃·杰克逊 Trevor Jackson
      迈克尔·肯尼斯·威廉姆斯 Michael Kenneth Williams
      埃塞·莫拉雷斯 Esai Morales
      杰森·米切尔 Jason Mitchell
      Lex Scott Davis
      安德莉亚·隆多 Andrea Londo
      阿伦·马尔多纳多 Allen Maldonado
      Adriyan Rae
      特雷勒·希尔 Terayle Hill
      Aundrea Smith
      Dawntavia Bullard
      大冯波 Big Boi
      玛丽亚·Z·威尔逊 Maria Z. Wilson
      Stephanie Garner
      Jacob Ming-Trent
      Al-Jaleel Knox
      L. Warren Young
      大卫·邓斯顿 David Dunston
      布莱恩·杜尔金 Brian F. Durkin
      迈克尔·比斯利 Michael Beasley
      Atkins Estimond
      Aparna Singh
      Ruben Vidal
      Kaalan Walker
      Dominique Madison
      Ryan J. Lewis
      Brian Kayode-Patrick Johnson
      Jared Losano
      Mehmet Korhan
      Ahmed Lucan
      里克·佩雷斯 Rick Perez
      Amy Stormant
      Ivan Leung
      Big Bank Black
      Kevin Young
      Chel Brickhouse
      Jamil Khan
      David Huegin
      Orlando Avila
      Krystle Darosa
      Trinity Moriah Jones
      Khyeer Hughes
      Richie Acevedo
      佩拉·米德尔顿 Perla Middleton

◎简  介

  一个可卡因贩子意识到他的生活即将终结,要么是进监狱,要么死亡,于是决定策划最大的一笔交易,弄完就逃离这种生活,然而局势让他不能脱身。



Video
ID : 1
Format : HEVC
Format/Info : High Efficiency Video Coding
Format profile : Main 10@L5.2@High
HDR format : SMPTE ST 2086, HDR10 compatible
Codec ID : V_MPEGH/ISO/HEVC
Duration : 1 h 56 min
Bit rate : 75.4 Mb/s
Width : 3 840 pixels
Height : 2 160 pixels
Display aspect ratio : 16:9
Frame rate mode : Constant
Frame rate : 23.976 (24000/1001) FPS
Color space : YUV
Chroma subsampling : 4:2:0 (Type 2)
Bit depth : 10 bits
Bits/(Pixel*Frame) : 0.379
Stream size : 61.2 GiB (95%)
Language : English
Default : Yes
Forced : No
Color range : Full
Color primaries : BT.2020
Transfer characteristics : PQ
Matrix coefficients : BT.2020 non-constant
Mastering display color primaries : Display P3
Mastering display luminance : min: 0.0050 cd/m2, max: 4000 cd/m2
Maximum Content Light Level : 4000 cd/m2
Maximum Frame-Average Light Level : 801 cd/m2

Audio #1
ID : 2
Format : DTS XLL
Format/Info : Digital Theater Systems
Commercial name : DTS-HD Master Audio
Codec ID : A_DTS
Duration : 1 h 56 min
Bit rate mode : Variable
Bit rate : 2 237 kb/s
Channel(s) : 6 channels
Channel layout : C L R Ls Rs LFE
Sampling rate : 48.0 kHz
Frame rate : 93.750 FPS (512 SPF)
Bit depth : 16 bits
Compression mode : Lossless
Delay relative to video : 3 ms
Stream size : 1.82 GiB (3%)
Title : DTS-HD MA 5.1
Language : English
Default : Yes
Forced : No

Audio #2
ID : 3
Format : AC-3
Format/Info : Audio Coding 3
Commercial name : Dolby Digital
Codec ID : A_AC3
Duration : 1 h 56 min
Bit rate mode : Constant
Bit rate : 640 kb/s
Channel(s) : 6 channels
Channel layout : L R C LFE Ls Rs
Sampling rate : 48.0 kHz
Frame rate : 31.250 FPS (1536 SPF)
Compression mode : Lossy
Stream size : 532 MiB (1%)
Title : DD 5.1
Language : English
Service kind : Complete Main
Default : No
Forced : No

Audio #3
ID : 4
Format : DTS
Format/Info : Digital Theater Systems
Codec ID : A_DTS
Duration : 1 h 56 min
Bit rate mode : Constant
Bit rate : 768 kb/s
Channel(s) : 6 channels
Channel layout : C L R Ls Rs LFE
Sampling rate : 48.0 kHz
Frame rate : 93.750 FPS (512 SPF)
Bit depth : 24 bits
Compression mode : Lossy
Stream size : 638 MiB (1%)
Title : DTS 5.1
Language : English
Default : No
Forced : No

Text #1
ID : 5
Format : UTF-8
Codec ID : S_TEXT/UTF8
Codec ID/Info : UTF-8 Plain Text
Duration : 1 h 56 min
Bit rate : 83 b/s
Count of elements : 2069
Stream size : 70.7 KiB (0%)
Language : English
Default : Yes
Forced : No

Text #2
ID : 6
Format : UTF-8
Codec ID : S_TEXT/UTF8
Codec ID/Info : UTF-8 Plain Text
Duration : 50 min 45 s
Bit rate : 2 b/s
Count of elements : 19
Stream size : 929 Bytes (0%)
Title : FORCED
Language : English
Default : No
Forced : No

Menu
00:00:00.000 : Chapter 01
00:05:54.145 : Chapter 02
00:14:24.321 : Chapter 03
00:21:11.603 : Chapter 04
00:28:39.926 : Chapter 05
00:35:25.915 : Chapter 06
00:40:37.518 : Chapter 07
00:47:54.121 : Chapter 08
00:54:24.511 : Chapter 09
01:00:06.227 : Chapter 10
01:08:10.628 : Chapter 11
01:16:01.348 : Chapter 12
01:22:30.487 : Chapter 13
01:32:03.559 : Chapter 14
01:38:19.852 : Chapter 15
01:47:35.449 : Chapter 16






游客,如果您要查看本帖隐藏内容请回复

游客,如果您要查看本帖隐藏内容请回复




.
回复

使用道具 举报

2

主题

1270

帖子

3828

积分

4K家园VIP

Rank: 9Rank: 9Rank: 9

积分
3828
发表于 2021-5-27 23:04:02 | 显示全部楼层
为了三千积分!
回复 支持 反对

使用道具 举报

0

主题

4921

帖子

1万

积分

4K家园VIP

Rank: 9Rank: 9Rank: 9

积分
12106
发表于 2021-5-28 07:58:30 | 显示全部楼层
太好啦&萬分感謝版主的無私發佈分享%
回复 支持 反对

使用道具 举报

55

主题

1353

帖子

3935

积分

4K家园VIP

Rank: 9Rank: 9Rank: 9

积分
3935
发表于 2021-5-28 08:52:01 | 显示全部楼层
楼下的接上
回复 支持 反对

使用道具 举报

0

主题

40

帖子

1045

积分

注册会员

Rank: 2

积分
1045
发表于 2021-5-28 23:35:10 | 显示全部楼层
感謝版主的無私發佈分享!!!!!!!
回复 支持 反对

使用道具 举报

0

主题

1241

帖子

3735

积分

4K家园VIP

Rank: 9Rank: 9Rank: 9

积分
3735
发表于 2021-5-30 15:56:29 | 显示全部楼层
传说中的沙发???哇卡卡
回复 支持 反对

使用道具 举报

3

主题

1101

帖子

3319

积分

4K家园VIP

Rank: 9Rank: 9Rank: 9

积分
3319
发表于 2021-5-31 10:05:40 | 显示全部楼层
为了三千积分!
回复 支持 反对

使用道具 举报

1

主题

1612

帖子

4444

积分

4K家园VIP

Rank: 9Rank: 9Rank: 9

积分
4444
发表于 2021-6-1 01:07:54 | 显示全部楼层
哈哈,我只看看不说话
回复 支持 反对

使用道具 举报

您需要登录后才可以回帖 登录 | 立即注册

本版积分规则

精彩图文
Archiver|手机版|TAG|Sitemap|新帖|专题|联系我们:邮箱: 4kjia.com@gmail.com   

4k家园   ©2019