[4K电影] 如果我留下 / If I Stay (2014) 4K高清下载/12.47GB

[复制链接]

566

主题

593

帖子

5387

积分

超级版主

Rank: 8Rank: 8

积分
5387
 楼主| 发表于 2021-5-28 10:25:55 | 显示全部楼层 |阅读模式
QQ图片20210528102253_副本_meitu_2.jpg

◎译  名 如果我留下/如果我还活着/徘徊人世间
◎片  名 If I Stay
◎年  代 2014
◎产  地 美国
◎类  别 剧情 / 爱情
◎语  言 英语
◎上映日期 2014-08-22(美国)
◎豆瓣评分 6.2/10 from 10470 users
◎豆瓣链接 https://movie.douban.com/subject/3428529/
◎片  长 106分钟
◎导  演 R·J·卡特勒 R.J. Cutler
◎编  剧 肖娜·克罗斯 Shauna Cross / 盖尔·福尔曼 Gayle Forman
◎主  演 科洛·莫瑞兹 Chlo? Grace Moretz
      米瑞·伊诺丝 Mireille Enos
      杰米·布莱克利 Jamie Blackley
      乔舒华·莱纳德 Joshua Leonard
      丽亚娜·莱伯拉托 Liana Liberato
      斯泰西·基齐 Stacy Keach
      加布里埃尔·罗斯 Gabrielle Rose
      阿莉娅·奥伯里恩 Aliyah O'Brien
      艾莎·辛德斯 Aisha Hinds
      劳伦·李·史密斯 Lauren Lee Smith
      谢拉赫·霍斯达尔 Chelah Horsdal
      莎拉·格雷 Sarah Grey
      威廉·C·沃恩 William C. Vaughan



◎简  介

  影片改编自美国作家盖尔·福尔曼畅销18个国家的同名小说,天赋超群的古典音乐少女米娅,与家人遭遇严重车祸,在昏迷之中忽然灵魂出窍,在生死之间看见未来。这段预告片中,莫瑞兹朗读小说的序言作为旁白,一边亲眼看着自己倒在车祸现场,躺在手术台上,男友和同伴奔向医院,护士在耳边喃喃低语,一边思索要如何做出这艰难的选择:是随父母离世而去,还是苏醒过来继续人生。

◎获奖情况

  第17届美国青少年选择奖 ?(2015)
  最佳剧情片
  最佳剧情片女演员 科洛·莫瑞兹
Video
ID : 1
Format : HEVC
Format/Info : High Efficiency Video Coding
Format profile : Main@L5@High
Codec ID : V_MPEGH/ISO/HEVC
Duration : 1 h 46 min
Bit rate : 13.0 Mb/s
Width : 3 840 pixels
Height : 2 160 pixels
Display aspect ratio : 16:9
Frame rate mode : Constant
Frame rate : 23.976 (24000/1001/189150) FPS
Color space : YUV
Chroma subsampling : 4:2:0
Bit depth : 8 bits
Bits/(Pixel*Frame) : 0.065
Stream size : 9.67 GiB (78%)
Default : Yes
Forced : No

Audio #1
ID : 2
ID in the original source medium : 4352 (0x1100)
Format : DTS XLL
Format/Info : Digital Theater Systems
Commercial name : DTS-HD Master Audio
Codec ID : A_DTS
Duration : 1 h 46 min
Bit rate mode : Variable
Bit rate : 3 310 kb/s
Channel(s) : 6 channels
Channel layout : C L R Ls Rs LFE
Sampling rate : 48.0 kHz
Frame rate : 93.750 FPS (512 SPF)
Bit depth : 24 bits
Compression mode : Lossless
Delay relative to video : 1 s 0 ms
Stream size : 2.47 GiB (20%)
Title : DTS-HD MA 5.1
Language : English
Default : Yes
Forced : No
Original source medium : Blu-ray

Audio #2
ID : 3
Format : AAC LC
Format/Info : Advanced Audio Codec Low Complexity
Codec ID : A_AAC-2
Duration : 1 h 46 min
Bit rate : 445 kb/s
Channel(s) : 6 channels
Channel layout : C L R Ls Rs LFE
Sampling rate : 48.0 kHz
Frame rate : 46.875 FPS (1024 SPF)
Compression mode : Lossy
Stream size : 340 MiB (3%)
Title : AAC 5.1
Language : English
Default : No
Forced : No

Text
ID : 4
Format : UTF-8
Codec ID : S_TEXT/UTF8
Codec ID/Info : UTF-8 Plain Text
Duration : 1 h 45 min
Bit rate : 66 b/s
Count of elements : 1765
Stream size : 51.6 KiB (0%)
Title : English
Language : English
Default : Yes
Forced : No

Menu
00:00:00.000 : Chapter 01
00:03:20.366 : Chapter 02
00:07:23.901 : Chapter 03
00:11:31.607 : Chapter 04
00:14:43.716 : Chapter 05
00:19:12.484 : Chapter 06
00:23:19.606 : Chapter 07
00:25:19.267 : Chapter 08
00:27:26.394 : Chapter 09
00:30:45.969 : Chapter 10
00:32:11.596 : Chapter 11
00:34:38.367 : Chapter 12
00:37:21.906 : Chapter 13
00:40:41.188 : Chapter 14
00:44:02.222 : Chapter 15
00:46:58.899 : Chapter 16
00:49:07.819 : Chapter 17
00:52:06.331 : Chapter 18
00:55:43.298 : Chapter 19
00:59:01.579 : Chapter 20
01:00:42.347 : Chapter 21
01:05:39.310 : Chapter 22
01:10:10.039 : Chapter 23
01:13:48.924 : Chapter 24
01:16:18.407 : Chapter 25
01:18:54.730 : Chapter 26
01:24:05.415 : Chapter 27
01:27:44.467 : Chapter 28
01:29:50.176 : Chapter 29
01:33:37.028 : Chapter 30
01:38:16.307 : Chapter 31
01:40:25.269 : Chapter 32




游客,如果您要查看本帖隐藏内容请回复





.
回复

使用道具 举报

57

主题

1420

帖子

4110

积分

4K家园VIP

Rank: 9Rank: 9Rank: 9

积分
4110
发表于 2021-5-28 10:26:08 | 显示全部楼层
前排顶,很好!
回复 支持 反对

使用道具 举报

0

主题

4938

帖子

1万

积分

4K家园VIP

Rank: 9Rank: 9Rank: 9

积分
12136
发表于 2021-5-28 10:55:43 | 显示全部楼层
太好啦&萬分感謝版主的無私發佈分享%
回复 支持 反对

使用道具 举报

48

主题

1412

帖子

4038

积分

4K家园VIP

Rank: 9Rank: 9Rank: 9

积分
4038
发表于 2021-6-3 14:21:19 | 显示全部楼层
感谢楼主发帖,前排顶起
回复 支持 反对

使用道具 举报

3

主题

1179

帖子

3555

积分

4K家园VIP

Rank: 9Rank: 9Rank: 9

积分
3555
发表于 2021-6-11 16:23:12 | 显示全部楼层
4K电影下个试试
回复 支持 反对

使用道具 举报

0

主题

1219

帖子

3673

积分

4K家园VIP

Rank: 9Rank: 9Rank: 9

积分
3673
发表于 3 天前 | 显示全部楼层
支持,赞一个
回复 支持 反对

使用道具 举报

您需要登录后才可以回帖 登录 | 立即注册

本版积分规则

精彩图文
Archiver|手机版|TAG|Sitemap|新帖|专题|联系我们:邮箱: 4kjia.com@gmail.com   

4k家园   ©2019