[4K演示视频] [国家地理] 自然界探索(2018) [2160P/MKV/398MB]

[复制链接]

2320

主题

2614

帖子

2万

积分

超级版主

Rank: 8Rank: 8

积分
21917
 楼主| 发表于 2021-6-4 15:02:59 | 显示全部楼层 |阅读模式

101.jpg 102.jpg 103.jpg 104.jpg 105.jpg 106.jpg

影片信息
片名:自然探索
上映时间: 2018
国家/地区:墨西哥
持续时间: 00 : 02 : 58
类型: 物种
导演: Cristina Limonta


影片简介:

    尤卡坦的 Cenotes 因其生物和地质特征而成为不可估量的自然遗产。


General
Unique ID                      : 267042306094241630783984309612545088196 (0xC8E67A3515BFE84F41E3A635BE5C9AC4)
Complete name                  :自然界探索(398MB)(2018)WEBRip 2160p.mkv
Format                         : Matroska
Format version                 : Version 4
File size                      : 399 MiB
Duration                       : 2 min 58 s
Overall bit rate               : 18.7 Mb/s
Encoded date                   : UTC 2021-05-27 18:06:23
Writing application            : mkvmerge v56.1.0 ('My Friend') 64-bit
Writing library                : libebml v1.4.2 + libmatroska v1.6.4

Video
ID                             : 1
Format                         : AVC
Format/Info                    : Advanced Video Codec
Format profile                 : High@L5.2
Format settings                : CABAC / 5 Ref Frames
Format settings, CABAC         : Yes
Format settings, Reference fra : 5 frames
Codec ID                       : V_MPEG4/ISO/AVC
Duration                       : 2 min 58 s
Bit rate                       : 18.5 Mb/s
Width                          : 3 840 pixels
Height                         : 2 026 pixels
Display aspect ratio           : 1.895
Frame rate mode                : Constant
Frame rate                     : 25.000 FPS
Color space                    : YUV
Chroma subsampling             : 4:2:0
Bit depth                      : 8 bits
Scan type                      : Progressive
Bits/(Pixel*Frame)             : 0.095
Stream size                    : 393 MiB (99%)
Writing library                : x264 core 155 r10 7d0ff22
Encoding settings              : cabac=1 / ref=5 / deblock=1:0:0 / analyse=0x3:0x113 / me=hex / subme=8 / psy=1 / psy_rd=1.00:0.00 / mixed_ref=1 / me_range=16 / chroma_me=1 / trellis=2 / 8x8dct=1 / cqm=0 / deadzone=21,11 / fast_pskip=1 / chroma_qp_offset=-2 / threads=63 / lookahead_threads=10 / sliced_threads=0 / nr=0 / decimate=1 / interlaced=0 / bluray_compat=0 / stitchable=1 / constrained_intra=0 / bframes=3 / b_pyramid=2 / b_adapt=2 / b_bias=0 / direct=3 / weightb=1 / open_gop=0 / weightp=2 / keyint=infinite / keyint_min=25 / scenecut=40 / intra_refresh=0 / rc_lookahead=50 / rc=crf / mbtree=1 / crf=20.0 / qcomp=0.60 / qpmin=5 / qpmax=69 / qpstep=4 / vbv_maxrate=24200 / vbv_bufsize=66000 / crf_max=0.0 / nal_hrd=none / filler=0 / ip_ratio=1.40 / aq=1:1.00
Default                        : Yes
Forced                         : No
Color range                    : Limited
Color primaries                : BT.709
Transfer characteristics       : BT.709
Matrix coefficients            : BT.709

Audio
ID                             : 2
Format                         : AAC LC
Format/Info                    : Advanced Audio Codec Low Complexity
Codec ID                       : A_AAC-2
Duration                       : 2 min 58 s
Bit rate                       : 256 kb/s
Channel(s)                     : 2 channels
Channel layout                 : L R
Sampling rate                  : 48.0 kHz
Frame rate                     : 46.875 FPS (1024 SPF)
Compression mode               : Lossy
Stream size                    : 5.45 MiB (1%)
Default                        : Yes
Forced                         : No




游客,如果您要查看本帖隐藏内容请回复



.
回复

使用道具 举报

198

主题

1609

帖子

4385

积分

4K家园VIP

Rank: 9Rank: 9Rank: 9

积分
4385
发表于 2021-6-4 15:03:03 | 显示全部楼层
怎么这么大,希望我电视能看啊
回复 支持 反对

使用道具 举报

0

主题

4921

帖子

1万

积分

4K家园VIP

Rank: 9Rank: 9Rank: 9

积分
12106
发表于 2021-6-4 15:38:44 | 显示全部楼层
墨西哥自然探索4k
回复 支持 反对

使用道具 举报

39

主题

1324

帖子

3734

积分

4K家园VIP

Rank: 9Rank: 9Rank: 9

积分
3734
发表于 2021-6-4 16:57:39 | 显示全部楼层
广告位,,坐下看看
回复 支持 反对

使用道具 举报

48

主题

1413

帖子

4041

积分

4K家园VIP

Rank: 9Rank: 9Rank: 9

积分
4041
发表于 2021-6-4 18:34:09 | 显示全部楼层
感谢楼主的分享,还是阔以滴
回复 支持 反对

使用道具 举报

0

主题

7

帖子

56

积分

新手上路

Rank: 1

积分
56
发表于 2021-6-4 20:40:14 | 显示全部楼层
支持!支持!
回复

使用道具 举报

0

主题

1233

帖子

3709

积分

4K家园VIP

Rank: 9Rank: 9Rank: 9

积分
3709
发表于 2021-6-5 03:08:09 | 显示全部楼层
楼主呀,,,您太有才了。。。
回复 支持 反对

使用道具 举报

0

主题

1

帖子

10

积分

新手上路

Rank: 1

积分
10
发表于 2021-6-5 11:17:17 | 显示全部楼层
下载资源用于学习
回复 支持 反对

使用道具 举报

1

主题

1314

帖子

3776

积分

中级会员

Rank: 4

积分
3776
发表于 2021-6-6 10:24:11 | 显示全部楼层
啥玩应呀
回复 支持 反对

使用道具 举报

0

主题

91

帖子

216

积分

新手上路

Rank: 1

积分
216
发表于 2021-6-10 02:35:32 | 显示全部楼层
顶顶顶顶顶顶顶顶顶
回复 支持 反对

使用道具 举报

您需要登录后才可以回帖 登录 | 立即注册

本版积分规则

精彩图文
Archiver|手机版|TAG|Sitemap|新帖|专题|联系我们:邮箱: 4kjia.com@gmail.com   

4k家园   ©2019