[4Kjia独享4K资源] 虎豹小霸王/Butch Cassidy and the Sundance Kid(1969) 4K高清下载/15.41GB

[复制链接]

571

主题

599

帖子

5431

积分

超级版主

Rank: 8Rank: 8

积分
5431
 楼主| 发表于 2021-6-9 15:42:23 | 显示全部楼层 |阅读模式
本帖最后由 最爱4K哟 于 2021-6-10 13:02 编辑

QQ图片20210609153918_副本_meitu_2.jpg

◎译  名 虎豹小霸王/神枪手与智多星/智多星布奇与太阳舞小子
◎片  名 Butch Cassidy and the Sundance Kid
◎年  代 1969
◎国  家 美国
◎类  别 冒险/犯罪/剧情/西部
◎语  言 英语/西班牙语
◎上映日期 1969-10-10
◎IMDb评分  8.1/10 from 141,895 users
◎IMDb链接  http://www.imdb.com/title/tt0064115/
◎豆瓣评分 8.7/10 from 7,491 users
◎豆瓣链接 http://movie.douban.com/subject/1297602/
◎片  长 110 分钟
◎导  演 乔治·罗伊·希尔 George Roy Hill
◎主  演 保罗·纽曼 Paul Newman
      罗伯特·雷德福 Robert Redford
      凯瑟琳·罗斯 Katharine Ross
      斯特罗瑟·马丁 Strother Martin


◎简  介


  19世纪末,威名四震的“虎豹小霸王”布奇(保罗·纽曼 Paul Newman 饰)与搭档太阳舞小子(罗伯特·雷德福 Robert Redford 饰)在美国西部的一个小镇上四处抢劫银行,与对手凶残搏杀,与警察机智周旋。一次,两人抢劫“飞人”公司邮车,引来警长与当地居民的追捕。但他俩依旧我行我素,抢占强占了女教师埃塔(凯瑟琳·罗斯 Katharine Ross 饰),逍遥自在地过着快乐时光。当他们再次抢劫“飞人”邮车后,招来一队骑警,对他们紧追不舍,展开天罗地网的搜捕,迫使布奇和太阳舞小子展开了逃亡之路。从悬崖跳下逃命的两人找到埃塔,商议去玻利维亚谋生。在异国他乡,他们尝试金盆洗手走上正道,终究还是认为这种生活不适合他们,于是重操旧业。埃塔一气之下,抛下他们重回美国。他们在一座小镇不慎暴露身份,被追捕的警察重重包围。前有拦截,后有追兵,虎豹小霸王是否能够在重重夹击之下浴火重生?
  本片获得第42届奥斯卡最佳原创剧本奖、最佳摄影奖、最佳原创歌曲奖、最佳配乐奖等。

◎获奖情况

  第42届奥斯卡金像奖 (1970)
  最佳影片(提名) John Foreman
  最佳导演(提名) 乔治·罗伊·希尔
  最佳原创剧本 威廉姆·高德曼
  最佳摄影 康拉德·霍尔
  最佳音响(提名) William Edmondson / David Dockendorf
  非歌舞片最佳原创配乐 伯特·巴卡拉克
  最佳原创歌曲 伯特·巴卡拉克 / Hal David


General
Unique ID                      : 127772233348914913502288697196787233011 (0x6020097A9677D42CD0B9A40BCEDF70F3)
Complete name                  : E:\电影、MV\Butch.Cassidy.And.The.Sundance.Kid.1969.MULTI.2160p.HDR.WEB.DTS-HDMA.5.1.HEVC-DDR.mkv
Format                         : Matroska
Format version                 : Version 4
File size                      : 15.4 GiB
Duration                       : 1 h 50 min
Overall bit rate mode          : Variable
Overall bit rate               : 19.9 Mb/s
Encoded date                   : UTC 2020-11-06 21:08:33
Writing application            : mkvmerge v51.0.0 ('I Wish') 64-bit
Writing library                : libebml v1.4.0 + libmatroska v1.6.2

Video
ID                             : 1
Format                         : HEVC
Format/Info                    : High Efficiency Video Coding
Format profile                 : Main 10@L5.1@High
HDR format                     : SMPTE ST 2086, HDR10 compatible
Codec ID                       : V_MPEGH/ISO/HEVC
Duration                       : 1 h 50 min
Bit rate                       : 16.0 Mb/s
Width                          : 3 840 pixels
Height                         : 1 632 pixels
Display aspect ratio           : 2.35:1
Frame rate mode                : Constant
Frame rate                     : 23.976 (24000/1001) FPS
Color space                    : YUV
Chroma subsampling             : 4:2:0
Bit depth                      : 10 bits
Bits/(Pixel*Frame)             : 0.107
Stream size                    : 12.4 GiB (80%)
Language                       : English
Default                        : Yes
Forced                         : No
Color range                    : Limited
Color primaries                : BT.2020
Transfer characteristics       : PQ
Matrix coefficients            : BT.2020 non-constant
Mastering display color primar : Display P3
Mastering display luminance    : min: 0.0050 cd/m2, max: 1000 cd/m2

Audio #1
ID                             : 2
Format                         : DTS XLL
Format/Info                    : Digital Theater Systems
Commercial name                : DTS-HD Master Audio
Codec ID                       : A_DTS
Duration                       : 1 h 50 min
Bit rate mode                  : Variable
Bit rate                       : 3 131 kb/s
Channel(s)                     : 6 channels
Channel layout                 : C L R Ls Rs LFE
Sampling rate                  : 48.0 kHz
Frame rate                     : 93.750 FPS (512 SPF)
Bit depth                      : 24 bits
Compression mode               : Lossless
Delay relative to video        : 9 ms
Stream size                    : 2.41 GiB (16%)
Title                          : DTS-HD MA 5.1
Language                       : English
Default                        : No
Forced                         : No

Audio #2
ID                             : 3
Format                         : DTS
Format/Info                    : Digital Theater Systems
Codec ID                       : A_DTS
Duration                       : 1 h 50 min
Bit rate mode                  : Constant
Bit rate                       : 768 kb/s
Channel(s)                     : 6 channels
Channel layout                 : C L R Ls Rs LFE
Sampling rate                  : 48.0 kHz
Frame rate                     : 93.750 FPS (512 SPF)
Bit depth                      : 24 bits
Compression mode               : Lossy
Delay relative to video        : 9 ms
Stream size                    : 606 MiB (4%)
Title                          : DTS 5.1 @ 768 kb/s
Language                       : French
Default                        : Yes
Forced                         : No

Text #1
ID                             : 4
Format                         : UTF-8
Codec ID                       : S_TEXT/UTF8
Codec ID/Info                  : UTF-8 Plain Text
Duration                       : 1 h 49 min
Bit rate                       : 0 b/s
Count of elements              : 6
Stream size                    : 248 Bytes (0%)
Title                          : Forced
Language                       : French
Default                        : Yes
Forced                         : No

Text #2
ID                             : 5
Format                         : UTF-8
Codec ID                       : S_TEXT/UTF8
Codec ID/Info                  : UTF-8 Plain Text
Duration                       : 1 h 49 min
Bit rate                       : 34 b/s
Count of elements              : 629
Stream size                    : 27.7 KiB (0%)
Title                          : French
Language                       : French
Default                        : No
Forced                         : No

Menu
00:00:00.000                   : en:00:00:00.000
00:02:55.300                   : en:00:02:55.300
00:04:58.798                   : en:00:04:58.798
00:09:04.419                   : en:00:09:04.419
00:11:14.799                   : en:00:11:14.799
00:15:37.603                   : en:00:15:37.603
00:18:18.472                   : en:00:18:18.472
00:22:01.737                   : en:00:22:01.737
00:26:12.863                   : en:00:26:12.863
00:31:25.842                   : en:00:31:25.842
00:34:13.593                   : en:00:34:13.593
00:38:10.079                   : en:00:38:10.079
00:40:43.274                   : en:00:40:43.274
00:46:30.621                   : en:00:46:30.621
00:49:06.485                   : en:00:49:06.485
00:53:24.159                   : en:00:53:24.159
00:56:29.219                   : en:00:56:29.219
01:00:58.071                   : en:01:00:58.071
01:04:06.051                   : en:01:04:06.051
01:06:28.067                   : en:01:06:28.067
01:09:42.553                   : en:01:09:42.553
01:12:55.580                   : en:01:12:55.580
01:16:02.266                   : en:01:16:02.266
01:18:32.499                   : en:01:18:32.499
01:22:13.137                   : en:01:22:13.137
01:34:05.473                   : en:01:34:05.473
01:36:32.328                   : en:01:36:32.328
01:38:45.920                   : en:01:38:45.920





下载链接
游客,如果您要查看本帖隐藏内容请回复





.

回复

使用道具 举报

3

主题

1271

帖子

3643

积分

4K家园VIP

Rank: 9Rank: 9Rank: 9

积分
3643
发表于 2021-6-9 15:42:30 来自手机 | 显示全部楼层
我也顶起出售广告位
回复 支持 反对

使用道具 举报

0

主题

5006

帖子

1万

积分

4K家园VIP

Rank: 9Rank: 9Rank: 9

积分
12230
发表于 2021-6-9 15:44:52 | 显示全部楼层
太好啦&萬分感謝版主的無私發佈分享%
回复 支持 反对

使用道具 举报

571

主题

599

帖子

5431

积分

超级版主

Rank: 8Rank: 8

积分
5431
 楼主| 发表于 2021-6-10 13:03:12 | 显示全部楼层
Butch.Cassidy.And.The.Sundance.Kid.1969.MULTI.2160p.HDR.WEB.DTS-HDMA.5.1.HEVC-DD.jpg Butch.Cassidy.And.The.Sundance.Kid.1969.MULTI.2160p.HDR.WEB.DTS-HDMA.5.1.HEVC-DD.jpg Butch.Cassidy.And.The.Sundance.Kid.1969.MULTI.2160p.HDR.WEB.DTS-HDMA.5.1.HEVC-DD.jpg Butch.Cassidy.And.The.Sundance.Kid.1969.MULTI.2160p.HDR.WEB.DTS-HDMA.5.1.HEVC-DD.jpg Butch.Cassidy.And.The.Sundance.Kid.1969.MULTI.2160p.HDR.WEB.DTS-HDMA.5.1.HEVC-DD.jpg Butch.Cassidy.And.The.Sundance.Kid.1969.MULTI.2160p.HDR.WEB.DTS-HDMA.5.1.HEVC-DD.jpg
回复 支持 反对

使用道具 举报

1

主题

1267

帖子

3653

积分

4K家园VIP

Rank: 9Rank: 9Rank: 9

积分
3653
发表于 2021-6-11 06:03:25 来自手机 | 显示全部楼层
这么强,支持楼主,佩服
回复 支持 反对

使用道具 举报

0

主题

61

帖子

4877

积分

中级会员

Rank: 4

积分
4877
发表于 2021-6-11 11:33:16 | 显示全部楼层

先谢楼主的分享
回复 支持 反对

使用道具 举报

0

主题

1205

帖子

3639

积分

4K家园VIP

Rank: 9Rank: 9Rank: 9

积分
3639
发表于 2021-6-11 11:44:18 | 显示全部楼层
打酱油的人拉,回复下赚取积分
回复 支持 反对

使用道具 举报

47

主题

1478

帖子

4244

积分

4K家园VIP

Rank: 9Rank: 9Rank: 9

积分
4244
发表于 2021-6-11 18:09:11 来自手机 | 显示全部楼层
没看懂
回复 支持 反对

使用道具 举报

2

主题

1085

帖子

3275

积分

4K家园VIP

Rank: 9Rank: 9Rank: 9

积分
3275
发表于 2021-6-11 22:10:09 来自手机 | 显示全部楼层
支持支持再支持
回复 支持 反对

使用道具 举报

您需要登录后才可以回帖 登录 | 立即注册

本版积分规则

精彩图文
Archiver|手机版|TAG|Sitemap|新帖|专题|联系我们:邮箱: 4kjia.com@gmail.com   

4k家园   ©2019