[4Kjia独享4K资源] [4K首发资源] 热带惊雷 /Tropic Thunder (2008) 4K高清下载/11.40GB

[复制链接]

566

主题

593

帖子

5387

积分

超级版主

Rank: 8Rank: 8

积分
5387
 楼主| 发表于 2021-6-10 10:42:07 | 显示全部楼层 |阅读模式
本帖最后由 没完没了 于 2021-6-12 21:48 编辑

QQ图片20210610102847_meitu_1_副本.jpg

◎译  名 热带惊雷/雷霆丧星/开麦拉惊魂
◎片  名 Tropic Thunder
◎年  代 2008
◎国  家 美国/德国
◎类  别 动作/冒险/喜剧
◎语  言 英语/汉语普通话
◎上映日期 2008-08-13(美国)
◎IMDb评分  7.0/10 from 284,275 users
◎IMDb链接  http://www.imdb.com/title/tt0942385/
◎豆瓣评分 6.8/10 from 19,194 users
◎豆瓣链接 http://movie.douban.com/subject/1994879/
◎片  长 107 分钟
◎导  演 本·斯蒂勒 Ben Stiller
◎主  演 本·斯蒂勒 Ben Stiller
      小罗伯特·唐尼 Robert Downey Jr.
      杰克·布莱克 Jack Black
      马修·麦康纳 Matthew McConaughey
      史蒂夫·库根 Steve Coogan
      尼克·诺特 Nick Nolte
      布兰登·T·杰克逊 Brandon T. Jackson
      杰伊·巴鲁切尔 Jay Baruchel
      汤姆·克鲁斯 Tom Cruise
      比尔·哈德尔 Bill Hader
      雷吉·李 Reggie Lee


◎简  介

  好莱坞计划拍摄一部讲述越战期间,美国一支精英小队前往越南东南部执行绝密任务的战争片,片名《热带惊雷》。该片耗资巨大,场面壮观,号称有史以来最贵的越战影片,并云集了塔克·斯皮德曼(本·斯蒂勒 Ben Stiller 饰)、柯克·拉扎鲁斯(小罗伯特·唐尼 Robert Downey Jr. 饰)、杰夫·波特尼(杰克·布莱克 Jack Black 饰)等过气或当红明星。为力求真实,导演达明·柯克伯恩(史蒂夫·库根 Steve Coogan 饰)甚至将剧组拉至东南亚进行拍摄。影片开拍伊始便状况不断,争议话题频出,最后还卷入当地一场真实的战争之中……
  本片荣获2009年美国演员协会杰出贡献奖、2008年好莱坞电影节年度喜剧奖、2009年青年艺术家奖最佳男配角奖(Brandon Soo Hoo)。


◎获奖情况

  第81届奥斯卡金像奖 (2009)
  最佳男配角(提名) 小罗伯特·唐尼

  第66届金球奖 (2009)
  电影类 最佳男配角(提名) 小罗伯特·唐尼 / 汤姆·克鲁斯

  第18届MTV电影奖 (2009)
  MTV电影奖 最目瞪口呆场面(提名) 本·斯蒂勒

  第11届美国青少年选择奖 (2009)
  最佳喜剧片男演员(提名) 本·斯蒂勒
  Choice Movie: Bromantic Comedy(提名)
  Choice Movie: Hissy Fit(提名) 小罗伯特·唐尼


General
Unique ID                      : 68830221255865856761132159015096098268 (0x33C837EA57EB8B92B990A916E4EF1DDC)
Complete name                  : E:\电影、MV\Tropic.Thunder.2008.MULTi.TC.2160p.HDR.WEBRip.DTS-HDMA.5.1.HEVC-DDR.mkv
Format                         : Matroska
Format version                 : Version 4
File size                      : 10.4 GiB
Duration                       : 1 h 46 min
Overall bit rate mode          : Variable
Overall bit rate               : 13.9 Mb/s
Encoded date                   : UTC 2020-07-01 23:32:16
Writing application            : mkvmerge v47.0.0 ('Black Flag') 64-bit
Writing library                : libebml v1.3.10 + libmatroska v1.5.2

Video
ID                             : 1
Format                         : HEVC
Format/Info                    : High Efficiency Video Coding
Format profile                 : Main 10@L5.1@High
HDR format                     : SMPTE ST 2086, HDR10 compatible
Codec ID                       : V_MPEGH/ISO/HEVC
Duration                       : 1 h 46 min
Bit rate                       : 9 465 kb/s
Width                          : 3 840 pixels
Height                         : 1 640 pixels
Display aspect ratio           : 2.35:1
Frame rate mode                : Constant
Frame rate                     : 23.976 (24000/1001) FPS
Color space                    : YUV
Chroma subsampling             : 4:2:0
Bit depth                      : 10 bits
Bits/(Pixel*Frame)             : 0.063
Stream size                    : 7.07 GiB (68%)
Language                       : English
Default                        : Yes
Forced                         : No
Color range                    : Limited
Color primaries                : BT.2020
Transfer characteristics       : PQ
Matrix coefficients            : BT.2020 non-constant
Mastering display color primar : Display P3
Mastering display luminance    : min: 0.0050 cd/m2, max: 4000 cd/m2

Audio #1
ID                             : 2
Format                         : DTS XLL
Format/Info                    : Digital Theater Systems
Commercial name                : DTS-HD Master Audio
Codec ID                       : A_DTS
Duration                       : 1 h 46 min
Bit rate mode                  : Variable
Bit rate                       : 4 073 kb/s
Channel(s)                     : 6 channels
Channel layout                 : C L R Ls Rs LFE
Sampling rate                  : 48.0 kHz
Frame rate                     : 93.750 FPS (512 SPF)
Bit depth                      : 24 bits
Compression mode               : Lossless
Stream size                    : 3.04 GiB (29%)
Title                          : DTS-HD MA 5.1
Language                       : English
Default                        : No
Forced                         : No

Audio #2
ID                             : 3
Format                         : AC-3
Format/Info                    : Audio Coding 3
Commercial name                : Dolby Digital
Codec ID                       : A_AC3
Duration                       : 1 h 46 min
Bit rate mode                  : Constant
Bit rate                       : 384 kb/s
Channel(s)                     : 6 channels
Channel layout                 : L R C LFE Ls Rs
Sampling rate                  : 48.0 kHz
Frame rate                     : 31.250 FPS (1536 SPF)
Compression mode               : Lossy
Delay relative to video        : 1 s 600 ms
Stream size                    : 293 MiB (3%)
Title                          : AC3 5.1
Language                       : French
Service kind                   : Complete Main
Default                        : Yes
Forced                         : No

Text #1
ID                             : 4
Format                         : UTF-8
Codec ID                       : S_TEXT/UTF8
Codec ID/Info                  : UTF-8 Plain Text
Duration                       : 1 h 27 min
Bit rate                       : 1 b/s
Count of elements              : 53
Stream size                    : 1.20 KiB (0%)
Title                          : Forced
Language                       : French
Default                        : Yes
Forced                         : No

Text #2
ID                             : 5
Format                         : UTF-8
Codec ID                       : S_TEXT/UTF8
Codec ID/Info                  : UTF-8 Plain Text
Duration                       : 1 h 38 min
Bit rate                       : 61 b/s
Count of elements              : 1435
Stream size                    : 44.6 KiB (0%)
Title                          : French
Language                       : French
Default                        : No
Forced                         : No



下载链接
游客,如果您要查看本帖隐藏内容请回复



以下为6.12更新
游客,如果您要查看本帖隐藏内容请回复



.
回复

使用道具 举报

566

主题

593

帖子

5387

积分

超级版主

Rank: 8Rank: 8

积分
5387
 楼主| 发表于 2021-6-10 12:58:31 | 显示全部楼层
Tropic.Thunder.2008.MULTi.TC.2160p.HDR.WEBRip.DTS-HDMA.5.1.HEVC-DDR.mkv_20210610.jpg Tropic.Thunder.2008.MULTi.TC.2160p.HDR.WEBRip.DTS-HDMA.5.1.HEVC-DDR.mkv_20210610.jpg Tropic.Thunder.2008.MULTi.TC.2160p.HDR.WEBRip.DTS-HDMA.5.1.HEVC-DDR.mkv_20210610.jpg Tropic.Thunder.2008.MULTi.TC.2160p.HDR.WEBRip.DTS-HDMA.5.1.HEVC-DDR.mkv_20210610.jpg Tropic.Thunder.2008.MULTi.TC.2160p.HDR.WEBRip.DTS-HDMA.5.1.HEVC-DDR.mkv_20210610.jpg Tropic.Thunder.2008.MULTi.TC.2160p.HDR.WEBRip.DTS-HDMA.5.1.HEVC-DDR.mkv_20210610.jpg
回复 支持 反对

使用道具 举报

0

主题

1271

帖子

3657

积分

4K家园VIP

Rank: 9Rank: 9Rank: 9

积分
3657
发表于 2021-6-10 10:42:12 | 显示全部楼层
嘘,低调。
回复 支持 反对

使用道具 举报

0

主题

1248

帖子

3756

积分

4K家园VIP

Rank: 9Rank: 9Rank: 9

积分
3756
发表于 2021-6-10 17:41:33 | 显示全部楼层
发发呆,回回帖,工作结束~
回复 支持 反对

使用道具 举报

45

主题

1392

帖子

4018

积分

4K家园VIP

Rank: 9Rank: 9Rank: 9

积分
4018
发表于 2021-6-10 19:47:16 | 显示全部楼层
回复 支持 反对

使用道具 举报

1

主题

1297

帖子

3905

积分

4K家园VIP

Rank: 9Rank: 9Rank: 9

积分
3905
发表于 2021-6-12 23:58:47 来自手机 | 显示全部楼层
看帖要回,回帖才健康,在踩踩,楼主辛苦了!
回复 支持 反对

使用道具 举报

1

主题

1300

帖子

3736

积分

4K家园VIP

Rank: 9Rank: 9Rank: 9

积分
3736
发表于 2021-6-15 07:30:44 | 显示全部楼层
顶起出售广告位
回复 支持 反对

使用道具 举报

您需要登录后才可以回帖 登录 | 立即注册

本版积分规则

精彩图文
Archiver|手机版|TAG|Sitemap|新帖|专题|联系我们:邮箱: 4kjia.com@gmail.com   

4k家园   ©2019