[4K电影] 关灯后 / Lights Out(内封中字) (2016) 4K高清下载/10.32GB

[复制链接]

872

主题

927

帖子

7970

积分

超级版主

Rank: 8Rank: 8

积分
7970
 楼主| 发表于 2021-6-26 09:35:01 | 显示全部楼层 |阅读模式
本帖最后由 叽里呱啦 于 2021-6-26 15:19 编辑

QQ图片20210626093723_副本_meitu_4.jpg

◎译  名 关灯后 / 关灯以后 / 关灯有鬼 / 切勿关灯(港) / 鬼关灯(台)
◎片  名 Lights Out
◎年  代 2016
◎产  地 美国
◎类  别 恐怖
◎语  言 英语
◎上映日期 2016-07-22(美国)
◎IMDb评分  6.3/10 from 112508 users
◎IMDb链接  https://www.imdb.com/title/tt4786282
◎豆瓣评分 6.7/10 from 44303 users
◎豆瓣链接 https://movie.douban.com/subject/26684564/
◎片  长 81分钟
◎导  演 大卫·F·桑德伯格 David F. Sandberg
◎编  剧 大卫·F·桑德伯格 David F. Sandberg / 埃里克·海瑟尔 Eric Heisserer
◎主  演 泰莉莎·帕尔墨 Teresa Palmer
       加布里埃尔·贝特曼 Gabriel Bateman
       亚历山大·蒂珀希亚 Alexander DiPersia
       玛丽亚·贝罗 Maria Bello
       艾丽西娅·维拉-贝利 Alicia Vela-Bailey
       比利·伯克 Billy Burke
       安迪·奥修 Andi Osho
       罗南多·博伊斯 Rolando Boyce
       玛莉亚·罗素 Maria Russell
       伊丽莎白·潘 Elizabeth Pan
       洛塔·洛斯滕 Lotta Losten
       阿米尔·米勒 Amiah Miller
       伊娃·坎特尔 Ava Cantrell
       艾米丽·阿琳·林德 Emily Alyn Lind



◎简  介  



  瑞贝卡(泰莉莎·帕尔墨 Teresa Palmer 饰)早早离开了母亲索菲(玛丽亚·贝罗 Maria Bello 饰),独自生活,之后索菲和保罗(比利·伯克 Billy Burke 饰)结婚,瑞贝卡有了一位名为马丁(加布里埃尔·贝特曼 Gabriel Bateman 饰)的同母异父的弟弟。然而,保罗在一场事故中死于非命,索菲因此陷入了悲伤和绝望之中,与此同时,马丁发现,妈妈常常会对着黑暗窃窃私语,似乎那里隐藏着一位“不速之客”。精神备受折磨的马丁向瑞贝卡求助,瑞贝卡因此想起了自己童年时代发生过的与此极为相似的事件。经过调查,这位隐藏在黑暗之中的神秘人物名为戴安娜(艾丽西娅·维拉-贝利 Alicia Vela-Bailey 饰),曾是母亲住院其间最好的朋友,之后死于一场医疗事故,如今,戴安娜的亡魂再度回到了索菲的身边,她要这位她最好的朋友永远的和她在一起,任何企图接近的人都将面临死亡的威胁。



◎获奖情况  

  第3届豆瓣电影年度榜单(2016)
  评分最高的恐怖片(提名)


Video
ID : 1
Format : HEVC
Format/Info : High Efficiency Video Coding
Format profile : Main 10@L5@High
HDR format : SMPTE ST 2086, HDR10 compatible
Codec ID : V_MPEGH/ISO/HEVC
Duration : 1 h 20 min
Bit rate : 14.4 Mb/s
Width : 3 840 pixels
Height : 1 600 pixels
Display aspect ratio : 2.40:1
Frame rate mode : Constant
Frame rate : 23.976 FPS
Color space : YUV
Chroma subsampling : 4:2:0 (Type 2)
Bit depth : 10 bits
Bits/(Pixel*Frame) : 0.098
Stream size : 8.13 GiB (79%)
Language : English
Default : Yes
Forced : No
Color range : Limited
Color primaries : BT.2020
Transfer characteristics : PQ
Matrix coefficients : BT.2020 non-constant
Mastering display color primaries : BT.2020
Mastering display luminance : min: 0.0050 cd/m2, max: 1000 cd/m2
Maximum Content Light Level : 5638 cd/m2
Maximum Frame-Average Light Level : 1476 cd/m2

Audio #1
ID : 2
Format : DTS XLL
Format/Info : Digital Theater Systems
Commercial name : DTS-HD Master Audio
Codec ID : A_DTS
Duration : 1 h 20 min
Bit rate mode : Variable
Bit rate : 3 477 kb/s
Channel(s) : 6 channels
Channel layout : C L R Ls Rs LFE
Sampling rate : 48.0 kHz
Frame rate : 93.750 FPS (512 SPF)
Bit depth : 24 bits
Compression mode : Lossless
Delay relative to video : 3 ms
Stream size : 1.97 GiB (19%)
Title : DTS-HD MA 5.1
Language : English
Default : Yes
Forced : No

Audio #2
ID : 3
Format : AC-3
Format/Info : Audio Coding 3
Commercial name : Dolby Digital
Codec ID : A_AC3
Duration : 1 h 20 min
Bit rate mode : Constant
Bit rate : 384 kb/s
Channel(s) : 6 channels
Channel layout : L R C LFE Ls Rs
Sampling rate : 48.0 kHz
Frame rate : 31.250 FPS (1536 SPF)
Compression mode : Lossy
Stream size : 222 MiB (2%)
Title : DD 5.1
Language : English
Service kind : Complete Main
Default : No
Forced : No

Text #1
ID : 4
Format : UTF-8
Codec ID : S_TEXT/UTF8
Codec ID/Info : UTF-8 Plain Text
Duration : 1 h 14 min
Bit rate : 35 b/s
Count of elements : 791
Stream size : 19.5 KiB (0%)
Language : English
Default : Yes
Forced : No

Text #2
ID : 5
Format : UTF-8
Codec ID : S_TEXT/UTF8
Codec ID/Info : UTF-8 Plain Text
Duration : 1 h 19 min
Bit rate : 52 b/s
Count of elements : 806
Stream size : 30.6 KiB (0%)
Language : Arabic
Default : No
Forced : No

Text #3
ID : 6
Format : UTF-8
Codec ID : S_TEXT/UTF8
Codec ID/Info : UTF-8 Plain Text
Duration : 1 h 19 min
Bit rate : 49 b/s
Count of elements : 813
Stream size : 28.7 KiB (0%)
Language : Bulgarian
Default : No
Forced : No

Text #4
ID : 7
Format : UTF-8
Codec ID : S_TEXT/UTF8
Codec ID/Info : UTF-8 Plain Text
Duration : 1 h 19 min
Bit rate : 31 b/s
Count of elements : 817
Stream size : 18.2 KiB (0%)
Language : Czech
Default : No
Forced : No

Text #5
ID : 8
Format : UTF-8
Codec ID : S_TEXT/UTF8
Codec ID/Info : UTF-8 Plain Text
Duration : 1 h 19 min
Bit rate : 26 b/s
Count of elements : 810
Stream size : 15.4 KiB (0%)
Language : Chinese
Default : No
Forced : No


Text #6
ID : 9
Format : UTF-8
Codec ID : S_TEXT/UTF8
Codec ID/Info : UTF-8 Plain Text
Duration : 1 h 19 min
Bit rate : 32 b/s
Count of elements : 605
Stream size : 19.2 KiB (0%)
Language : Danish
Default : No
Forced : No

Text #7
ID : 10
Format : UTF-8
Codec ID : S_TEXT/UTF8
Codec ID/Info : UTF-8 Plain Text
Duration : 1 h 14 min
Bit rate : 35 b/s
Count of elements : 796
Stream size : 19.3 KiB (0%)
Language : German
Default : No
Forced : No

Text #8
ID : 11
Format : UTF-8
Codec ID : S_TEXT/UTF8
Codec ID/Info : UTF-8 Plain Text
Duration : 1 h 19 min
Bit rate : 56 b/s
Count of elements : 806
Stream size : 32.8 KiB (0%)
Language : Greek
Default : No
Forced : No

Text #9
ID : 12
Format : UTF-8
Codec ID : S_TEXT/UTF8
Codec ID/Info : UTF-8 Plain Text
Duration : 1 h 19 min
Bit rate : 26 b/s
Count of elements : 829
Stream size : 15.5 KiB (0%)
Language : Estonian
Default : No
Forced : No

Text #10
ID : 13
Format : UTF-8
Codec ID : S_TEXT/UTF8
Codec ID/Info : UTF-8 Plain Text
Duration : 1 h 19 min
Bit rate : 29 b/s
Count of elements : 765
Stream size : 17.1 KiB (0%)
Language : Finnish
Default : No
Forced : No

Text #11
ID : 14
Format : UTF-8
Codec ID : S_TEXT/UTF8
Codec ID/Info : UTF-8 Plain Text
Duration : 1 h 19 min
Bit rate : 33 b/s
Count of elements : 818
Stream size : 19.8 KiB (0%)
Language : French
Default : No
Forced : No

Text #12
ID : 15
Format : UTF-8
Codec ID : S_TEXT/UTF8
Codec ID/Info : UTF-8 Plain Text
Duration : 1 h 19 min
Bit rate : 51 b/s
Count of elements : 822
Stream size : 30.0 KiB (0%)
Language : Hebrew
Default : No
Forced : No

Text #13
ID : 16
Format : UTF-8
Codec ID : S_TEXT/UTF8
Codec ID/Info : UTF-8 Plain Text
Duration : 1 h 16 min
Bit rate : 33 b/s
Count of elements : 808
Stream size : 19.1 KiB (0%)
Language : Hungarian
Default : No
Forced : No

Text #14
ID : 17
Format : UTF-8
Codec ID : S_TEXT/UTF8
Codec ID/Info : UTF-8 Plain Text
Duration : 1 h 16 min
Bit rate : 34 b/s
Count of elements : 806
Stream size : 19.2 KiB (0%)
Language : Italian
Default : No
Forced : No

Text #15
ID : 18
Format : UTF-8
Codec ID : S_TEXT/UTF8
Codec ID/Info : UTF-8 Plain Text
Duration : 1 h 14 min
Bit rate : 29 b/s
Count of elements : 711
Stream size : 16.4 KiB (0%)
Language : Japanese
Default : No
Forced : No

Text #16
ID : 19
Format : UTF-8
Codec ID : S_TEXT/UTF8
Codec ID/Info : UTF-8 Plain Text
Duration : 1 h 19 min
Bit rate : 31 b/s
Count of elements : 844
Stream size : 18.6 KiB (0%)
Language : Latvian
Default : No
Forced : No

Text #17
ID : 20
Format : UTF-8
Codec ID : S_TEXT/UTF8
Codec ID/Info : UTF-8 Plain Text
Duration : 1 h 19 min
Bit rate : 30 b/s
Count of elements : 811
Stream size : 18.1 KiB (0%)
Language : Lithuanian
Default : No
Forced : No

Text #18
ID : 21
Format : UTF-8
Codec ID : S_TEXT/UTF8
Codec ID/Info : UTF-8 Plain Text
Duration : 1 h 19 min
Bit rate : 28 b/s
Count of elements : 660
Stream size : 16.8 KiB (0%)
Language : Dutch
Default : No
Forced : No

Text #19
ID : 22
Format : UTF-8
Codec ID : S_TEXT/UTF8
Codec ID/Info : UTF-8 Plain Text
Duration : 1 h 19 min
Bit rate : 31 b/s
Count of elements : 673
Stream size : 18.3 KiB (0%)
Language : Norwegian
Default : No
Forced : No

Text #20
ID : 23
Format : UTF-8
Codec ID : S_TEXT/UTF8
Codec ID/Info : UTF-8 Plain Text
Duration : 1 h 19 min
Bit rate : 28 b/s
Count of elements : 792
Stream size : 16.8 KiB (0%)
Language : Polish
Default : No
Forced : No

Text #21
ID : 24
Format : UTF-8
Codec ID : S_TEXT/UTF8
Codec ID/Info : UTF-8 Plain Text
Duration : 1 h 19 min
Bit rate : 32 b/s
Count of elements : 816
Stream size : 19.2 KiB (0%)
Language : Portuguese
Default : No
Forced : No

Text #22
ID : 25
Format : UTF-8
Codec ID : S_TEXT/UTF8
Codec ID/Info : UTF-8 Plain Text
Duration : 1 h 19 min
Bit rate : 54 b/s
Count of elements : 847
Stream size : 31.9 KiB (0%)
Language : Russian
Default : No
Forced : No

Text #23
ID : 26
Format : UTF-8
Codec ID : S_TEXT/UTF8
Codec ID/Info : UTF-8 Plain Text
Duration : 1 h 16 min
Bit rate : 30 b/s
Count of elements : 808
Stream size : 17.0 KiB (0%)
Language : Slovenian
Default : No
Forced : No

Text #24
ID : 27
Format : UTF-8
Codec ID : S_TEXT/UTF8
Codec ID/Info : UTF-8 Plain Text
Duration : 1 h 16 min
Bit rate : 32 b/s
Count of elements : 805
Stream size : 18.4 KiB (0%)
Language : Spanish
Default : No
Forced : No

Text #25
ID : 28
Format : UTF-8
Codec ID : S_TEXT/UTF8
Codec ID/Info : UTF-8 Plain Text
Duration : 1 h 19 min
Bit rate : 30 b/s
Count of elements : 817
Stream size : 18.1 KiB (0%)
Language : Swedish
Default : No
Forced : No

Text #26
ID : 29
Format : UTF-8
Codec ID : S_TEXT/UTF8
Codec ID/Info : UTF-8 Plain Text
Duration : 1 h 19 min
Bit rate : 78 b/s
Count of elements : 822
Stream size : 45.9 KiB (0%)
Language : Thai
Default : No
Forced : No

Text #27
ID : 30
Format : UTF-8
Codec ID : S_TEXT/UTF8
Codec ID/Info : UTF-8 Plain Text
Duration : 1 h 19 min
Bit rate : 32 b/s
Count of elements : 819
Stream size : 19.0 KiB (0%)
Language : Turkish
Default : No
Forced : No


迅雷下载资源速度为零,资源敏感和谐时,推荐使用qBittorrent等下载软件,有条件的推荐115更好的下载软件!
游客,如果您要查看本帖隐藏内容请回复




.



上一篇:基努猫 / Keanu (内封中字)(2016) 4K高清下载/12.98GB
下一篇:占水师 / The Water Diviner (2014) 4K高清下载/13.35GB
回复

使用道具 举报

48

主题

1443

帖子

4147

积分

4K家园VIP

Rank: 9Rank: 9Rank: 9

积分
4147
发表于 2021-6-26 09:35:08 | 显示全部楼层
顶起顶起顶起
回复 支持 反对

使用道具 举报

0

主题

5838

帖子

1万

积分

4K家园VIP

Rank: 9Rank: 9Rank: 9

积分
13919
发表于 2021-6-26 10:48:35 | 显示全部楼层
太好啦&萬分感謝版主的無私發佈分享%
回复 支持 反对

使用道具 举报

0

主题

11

帖子

196

积分

新手上路

Rank: 1

积分
196
发表于 2021-6-26 20:54:40 | 显示全部楼层
谢谢楼主分享资源,辛苦了,谢谢。
回复 支持 反对

使用道具 举报

1

主题

1291

帖子

3891

积分

4K家园VIP

Rank: 9Rank: 9Rank: 9

积分
3891
发表于 2021-7-7 16:07:36 | 显示全部楼层
站位支持
回复 支持 反对

使用道具 举报

2

主题

1670

帖子

4546

积分

4K家园VIP

Rank: 9Rank: 9Rank: 9

积分
4546
发表于 2021-7-8 08:09:12 来自手机 | 显示全部楼层
支持,赞一个
回复 支持 反对

使用道具 举报

1

主题

1411

帖子

4033

积分

4K家园VIP

Rank: 9Rank: 9Rank: 9

积分
4033
发表于 2021-7-12 08:26:25 | 显示全部楼层
楼主这资源不错,我收藏了
回复 支持 反对

使用道具 举报

47

主题

1415

帖子

4037

积分

4K家园VIP

Rank: 9Rank: 9Rank: 9

积分
4037
发表于 2021-7-12 09:16:29 来自手机 | 显示全部楼层
支持一下楼主发表的内容
回复 支持 反对

使用道具 举报

0

主题

12

帖子

52

积分

新手上路

Rank: 1

积分
52
发表于 2021-9-19 15:45:43 | 显示全部楼层
sdfdsfawffef
回复 支持 反对

使用道具 举报

您需要登录后才可以回帖 登录 | 立即注册

本版积分规则

精彩图文
Archiver|手机版|TAG|Sitemap|新帖|专题|联系我们:邮箱: 4kjia.com@gmail.com   

4k家园   ©2019