2021 HEYGIRLS - I cook(表演视频4)4k [2160P/MP4/321MB]

[复制链接]

2417

主题

2717

帖子

2万

积分

超级版主

Rank: 8Rank: 8

积分
22705
 楼主| 发表于 2021-7-5 21:29:47 | 显示全部楼层 |阅读模式
2021 HEYGIRLS - I cook (Performance Video 4) 4k.mp4_20210628_142059.109.jpg 2021 HEYGIRLS - I cook (Performance Video 4) 4k.mp4_20210628_142115.982.jpg 2021 HEYGIRLS - I cook (Performance Video 4) 4k.mp4_20210628_142134.742.jpg 2021 HEYGIRLS - I cook (Performance Video 4) 4k.mp4_20210628_142144.342.jpg 2021 HEYGIRLS - I cook (Performance Video 4) 4k.mp4_20210628_142150.415.jpg 2021 HEYGIRLS - I cook (Performance Video 4) 4k.mp4_20210628_142157.502.jpg

General
Complete name                  : E:\电影、MV\2021 HEYGIRLS - I cook(表演视频4)4k.mp4
Format                         : MPEG-4
Format profile                 : Base Media
Codec ID                       : isom (isom/iso2/avc1/mp41)
File size                      : 322 MiB
Duration                       : 2 min 59 s
Overall bit rate               : 15.1 Mb/s
Writing application            : Lavf58.12.100
exvr                           : EX1.8.2(C1.0.9)

Video
ID                             : 1
Format                         : AVC
Format/Info                    : Advanced Video Codec
Format profile                 : High@L5.1
Format settings                : CABAC / 4 Ref Frames
Format settings, CABAC         : Yes
Format settings, Reference fra : 4 frames
Codec ID                       : avc1
Codec ID/Info                  : Advanced Video Coding
Duration                       : 2 min 59 s
Bit rate                       : 14.9 Mb/s
Width                          : 3 840 pixels
Height                         : 2 160 pixels
Display aspect ratio           : 16:9
Frame rate mode                : Constant
Frame rate                     : 23.976 (23976/1000) FPS
Color space                    : YUV
Chroma subsampling             : 4:2:0
Bit depth                      : 8 bits
Scan type                      : Progressive
Bits/(Pixel*Frame)             : 0.075
Stream size                    : 317 MiB (99%)
Color range                    : Limited
Color primaries                : BT.709
Transfer characteristics       : BT.709
Matrix coefficients            : BT.709
Codec configuration box        : avcC

Audio
ID                             : 2
Format                         : AAC LC
Format/Info                    : Advanced Audio Codec Low Complexity
Codec ID                       : mp4a-40-2
Duration                       : 2 min 59 s
Duration_LastFrame             : -1 ms
Bit rate mode                  : Constant
Bit rate                       : 192 kb/s
Channel(s)                     : 2 channels
Channel layout                 : L R
Sampling rate                  : 48.0 kHz
Frame rate                     : 46.875 FPS (1024 SPF)
Compression mode               : Lossy
Stream size                    : 4.10 MiB (1%)
Default                        : Yes
Alternate group                : 1



网盘下载失效不补:链接:https://pan.baidu.com/s/1xYtEEAoobxYGwv21ywB-Qg
提取码:
****此区域为收费内容****    需支付 15 金币后可查看立即购买







.
回复

使用道具 举报

0

主题

1242

帖子

3552

积分

4K家园VIP

Rank: 9Rank: 9Rank: 9

积分
3552
发表于 2021-7-5 21:29:52 来自手机 | 显示全部楼层
楼猪V5啊
回复 支持 反对

使用道具 举报

62

主题

1409

帖子

4107

积分

4K家园VIP

Rank: 9Rank: 9Rank: 9

积分
4107
发表于 2021-7-6 10:56:36 | 显示全部楼层
广告位,,坐下看看
回复 支持 反对

使用道具 举报

2

主题

1679

帖子

4583

积分

中级会员

Rank: 4

积分
4583
发表于 2021-7-8 22:09:45 | 显示全部楼层
哈哈,我只看看不说话
回复 支持 反对

使用道具 举报

1

主题

1534

帖子

4224

积分

4K家园VIP

Rank: 9Rank: 9Rank: 9

积分
4224
发表于 2021-7-9 08:27:59 | 显示全部楼层
发发呆,回回帖,工作结束~
回复 支持 反对

使用道具 举报

40

主题

1401

帖子

4007

积分

4K家园VIP

Rank: 9Rank: 9Rank: 9

积分
4007
发表于 2021-7-9 08:29:05 | 显示全部楼层
嘘,低调。
回复 支持 反对

使用道具 举报

0

主题

560

帖子

1946

积分

注册会员

Rank: 2

积分
1946
发表于 2021-7-11 23:12:59 | 显示全部楼层
感谢楼主分享
回复 支持 反对

使用道具 举报

0

主题

560

帖子

1946

积分

注册会员

Rank: 2

积分
1946
发表于 2021-7-14 11:34:24 | 显示全部楼层
感谢楼主发布
回复 支持 反对

使用道具 举报

您需要登录后才可以回帖 登录 | 立即注册

本版积分规则

精彩图文
Archiver|手机版|TAG|Sitemap|新帖|专题|联系我们:邮箱: 4kjia.com@gmail.com   

4k家园   ©2019