[4K电影] 盟军夺宝队 / The Monuments Men (2014) 4K高清版本下载/12.79GB

[复制链接]

742

主题

783

帖子

6748

积分

超级版主

Rank: 8Rank: 8

积分
6748
 楼主| 发表于 2021-6-29 10:08:38 | 显示全部楼层 |阅读模式
QQ图片20210629100454_副本_meitu_3.jpg

◎译  名 盟军夺宝队/古文明救兵(港)/古迹卫士/大寻宝家(台)/遗产护卫队
◎片  名 The Monuments Men
◎年  代 2014
◎产  地 美国,德国
◎类  别 剧情 / 传记 / 历史 / 战争
◎语  言 英语,德语,俄语,法语,弗拉芒语
◎上映日期 2014-02-07(美国) / 2014-03-28(中国大陆)
◎豆瓣评分 5.5/10 from 20388 users
◎豆瓣链接 https://movie.douban.com/subject/10456894/
◎片  长 118分钟
◎导  演 乔治·克鲁尼 George Clooney
◎编  剧 乔治·克鲁尼 George Clooney / 格兰特·赫斯洛夫 Grant Heslov / 罗伯特·M·埃赛尔 Robert M. Edsel / 布雷特·韦特 Bret Witter
◎主  演 乔治·克鲁尼 George Clooney
      马特·达蒙 Matt Damon
      比尔·默瑞 Bill Murray
      凯特·布兰切特 Cate Blanchett
      约翰·古德曼 John Goodman
      让·杜雅尔丹 Jean Dujardin
      休·博纳维尔 Hugh Bonneville
      鲍勃·巴拉班 Bob Balaban
      迪米特里·列奥尼达斯 Dimitri Leonidas
      尤斯图斯·冯·多赫纳尼 Justus von Dohnányi
      扎哈利·巴哈罗夫 Zachary Baharov
      迈克尔·布兰德纳 Michael Brandner
      山姆·哈兹尔丁 Sam Hazeldine
      迈尔斯·贾普 Miles Jupp
      亚历山大·德斯普拉 Alexandre Desplat
      迪尔梅德·默塔 Diarmaid Murtagh
      塞尔奇·哈赛纳维奇 Serge Hazanavicius
      吕克·费特 Luc Feit
      格兰特·赫斯洛夫 Grant Heslov
      奥黛丽·玛内 Audrey Marnay
      霍尔格·汉德克 Holger Handtke
      迈克尔霍夫兰 Michael Hofland
      泽维尔·劳伦斯 Xavier Laurent
      尼克·克鲁尼 Nick Clooney
       Jo Marriott
      詹姆斯·迈克尔·兰金 James Michael Rankin
      保罗·吉亚玛提 Paul Giamatti
      李·阿斯奎斯-柯 Lee Asquith-Coe
      亚当·普里克特 Adam Prickett
      斯图尔特·马修斯 Stuart Matthews
      阿德里安·布薛特 Adrian Bouchet
      艾伦·邦德巴-拉德 Alan Bond-Ballard



◎简  介

  1944年,德国纳粹战败前夕。为保护人类所共有的艺术瑰宝免遭恶意损毁,罗斯福总统授意成立一支盟军夺宝队,该队伍由弗兰克·斯托克教授(乔治·克鲁尼 George Clooney 饰)领军,网罗了詹姆斯·格兰杰(马特·达蒙 Matt Damon 饰)、理查德·坎贝尔(比尔·默瑞 Bill Murray 饰)、沃尔特·加菲尔德(约翰·古德曼 John Goodman 饰)等散落在各界的艺术领域精英人才。德国人全线溃逃,夺宝队一路追踪,挽救了不少珍贵文物。当他们抵达巴黎时,见到了曾在德国人麾下管理艺术品的法国国家博物馆雇员克莱尔·西蒙(凯特·布兰切特 Cate Blanchett 饰),在她的协助下得以令无数的瑰宝物归原主。这是一场关系着人类遗产的战争,争分夺秒,不容喘息……

  本片根据二战期间发生的真实故事改编。

◎获奖情况

  第1届豆瓣电影年度榜单 ?(2014)
  评分最低的外语电影(提名)

  第5届豆瓣电影鑫像奖 ?(2015)
  豆渣单元最渣男演员(外语)(提名) 乔治·克鲁尼
Video
ID : 1
Format : HEVC
Format/Info : High Efficiency Video Coding
Format profile : Main 10@L5@High
Codec ID : V_MPEGH/ISO/HEVC
Duration : 1 h 58 min
Bit rate : 12.0 Mb/s
Width : 3 840 pixels
Height : 1 600 pixels
Display aspect ratio : 2.40:1
Frame rate mode : Constant
Frame rate : 23.976 FPS
Color space : YUV
Chroma subsampling : 4:2:0
Bit depth : 10 bits
Bits/(Pixel*Frame) : 0.081
Stream size : 9.91 GiB (77%)
Default : Yes
Forced : No
Color range : Limited
Color primaries : BT.709
Transfer characteristics : BT.709
Matrix coefficients : BT.709

Audio #1
ID : 2
Format : DTS XLL
Format/Info : Digital Theater Systems
Commercial name : DTS-HD Master Audio
Codec ID : A_DTS
Duration : 1 h 58 min
Bit rate mode : Variable
Bit rate : 2 794 kb/s
Channel(s) : 6 channels
Channel layout : C L R Ls Rs LFE
Sampling rate : 48.0 kHz
Frame rate : 93.750 FPS (512 SPF)
Bit depth : 24 bits
Compression mode : Lossless
Delay relative to video : 2 ms
Stream size : 2.31 GiB (18%)
Title : DTS-HD MA 5.1
Language : English
Default : Yes
Forced : No

Audio #2
ID : 3
Format : AC-3
Format/Info : Audio Coding 3
Commercial name : Dolby Digital
Codec ID : A_AC3
Duration : 1 h 58 min
Bit rate mode : Constant
Bit rate : 640 kb/s
Channel(s) : 6 channels
Channel layout : L R C LFE Ls Rs
Sampling rate : 48.0 kHz
Frame rate : 31.250 FPS (1536 SPF)
Compression mode : Lossy
Stream size : 542 MiB (4%)
Title : DD 5.1
Language : English
Service kind : Complete Main
Default : No
Forced : No

Text #1
ID : 4
Format : UTF-8
Codec ID : S_TEXT/UTF8
Codec ID/Info : UTF-8 Plain Text
Duration : 58 min 39 s
Bit rate : 3 b/s
Count of elements : 46
Stream size : 1.32 KiB (0%)
Title : FORCED
Language : English
Default : Yes
Forced : Yes

Text #2
ID : 5
Format : UTF-8
Codec ID : S_TEXT/UTF8
Codec ID/Info : UTF-8 Plain Text
Duration : 1 h 49 min
Bit rate : 48 b/s
Count of elements : 1126
Stream size : 38.7 KiB (0%)
Language : English
Default : No
Forced : No

Text #3
ID : 6
Format : PGS
Muxing mode : zlib
Codec ID : S_HDMV/PGS
Codec ID/Info : Picture based subtitle format used on BDs/HD-DVDs
Duration : 58 min 39 s
Bit rate : 1 802 b/s
Count of elements : 92
Stream size : 774 KiB (0%)
Title : FORCED
Language : English
Default : No
Forced : No

Text #4
ID : 7
Format : PGS
Muxing mode : zlib
Codec ID : S_HDMV/PGS
Codec ID/Info : Picture based subtitle format used on BDs/HD-DVDs
Duration : 1 h 49 min
Bit rate : 28.3 kb/s
Count of elements : 2256
Stream size : 22.1 MiB (0%)
Language : English
Default : No
Forced : No

Text #5
ID : 8
Format : PGS
Muxing mode : zlib
Codec ID : S_HDMV/PGS
Codec ID/Info : Picture based subtitle format used on BDs/HD-DVDs
Duration : 1 h 56 min
Bit rate : 21.7 kb/s
Count of elements : 2813
Stream size : 18.1 MiB (0%)
Title : SDH
Language : English
Default : No
Forced : No

Text #6
ID : 9
Format : PGS
Muxing mode : zlib
Codec ID : S_HDMV/PGS
Codec ID/Info : Picture based subtitle format used on BDs/HD-DVDs
Duration : 1 h 57 min
Bit rate : 23.6 kb/s
Count of elements : 2236
Stream size : 19.8 MiB (0%)
Language : French
Default : No
Forced : No

Text #7
ID : 10
Format : PGS
Muxing mode : zlib
Codec ID : S_HDMV/PGS
Codec ID/Info : Picture based subtitle format used on BDs/HD-DVDs
Duration : 1 h 57 min
Bit rate : 24.5 kb/s
Count of elements : 2292
Stream size : 20.6 MiB (0%)
Language : Spanish
Default : No
Forced : No

Menu
00:00:00.000 : Chapter 01
00:04:41.572 : Chapter 02
00:16:01.961 : Chapter 03
00:20:13.837 : Chapter 04
00:23:37.457 : Chapter 05
00:27:12.464 : Chapter 06
00:31:36.811 : Chapter 07
00:40:37.893 : Chapter 08
00:50:40.579 : Chapter 09
00:53:31.249 : Chapter 10
00:59:36.447 : Chapter 11
01:00:52.815 : Chapter 12
01:17:06.705 : Chapter 13
01:21:50.530 : Chapter 14
01:33:08.332 : Chapter 15
01:46:26.463 : Chapter 16





迅雷下载资源速度为零,资源敏感和谐时,推荐使用qBittorrent等下载软件,有条件的推荐115更好的下载软件!

下载链接
游客,如果您要查看本帖隐藏内容请回复



.
回复

使用道具 举报

1

主题

1280

帖子

3860

积分

4K家园VIP

Rank: 9Rank: 9Rank: 9

积分
3860
发表于 2021-6-29 10:08:59 | 显示全部楼层
LZ敢整点更有创意的不?兄弟们等着围观捏~
回复 支持 反对

使用道具 举报

0

主题

5563

帖子

1万

积分

4K家园VIP

Rank: 9Rank: 9Rank: 9

积分
13230
发表于 2021-6-29 10:22:26 | 显示全部楼层
太好啦&萬分感謝版主的無私發佈分享%
回复 支持 反对

使用道具 举报

37

主题

1401

帖子

4019

积分

4K家园VIP

Rank: 9Rank: 9Rank: 9

积分
4019
发表于 2021-7-2 06:38:59 | 显示全部楼层
非常好,顶一下
回复 支持 反对

使用道具 举报

1

主题

1116

帖子

3370

积分

4K家园VIP

Rank: 9Rank: 9Rank: 9

积分
3370
发表于 2021-7-3 08:56:10 | 显示全部楼层
4K家园不错,希望这种资源越多越好
回复 支持 反对

使用道具 举报

1

主题

1277

帖子

3685

积分

4K家园VIP

Rank: 9Rank: 9Rank: 9

积分
3685
发表于 2021-7-9 16:59:50 | 显示全部楼层
感谢分享
回复 支持 反对

使用道具 举报

1

主题

1288

帖子

3700

积分

4K家园VIP

Rank: 9Rank: 9Rank: 9

积分
3700
发表于 2021-7-11 17:25:32 | 显示全部楼层
路过
回复 支持 反对

使用道具 举报

您需要登录后才可以回帖 登录 | 立即注册

本版积分规则

精彩图文
Archiver|手机版|TAG|Sitemap|新帖|专题|联系我们:邮箱: 4kjia.com@gmail.com   

4k家园   ©2019