[4K风景视频] [国家地理] 巴基斯坦水土风情(2019) [2160P/MKV/512MB]

[复制链接]

2404

主题

2704

帖子

2万

积分

超级版主

Rank: 8Rank: 8

积分
22571
 楼主| 发表于 5 天前 | 显示全部楼层 |阅读模式

巴基斯坦(512MB)(2019)WE​​BRip 2160p.mkv_20210629_121526.794.jpg 巴基斯坦(512MB)(2019)WE​​BRip 2160p.mkv_20210629_121539.864.jpg 巴基斯坦(512MB)(2019)WE​​BRip 2160p.mkv_20210629_121553.999.jpg 巴基斯坦(512MB)(2019)WE​​BRip 2160p.mkv_20210629_121559.112.jpg 巴基斯坦(512MB)(2019)WE​​BRip 2160p.mkv_20210629_121609.318.jpg 巴基斯坦(512MB)(2019)WE​​BRip 2160p.mkv_20210629_121623.631.jpg

有关信息
标题: 巴基斯坦水土风情
发行年代: 2019
国家/地区:Trakistan
持续时间: 00 : 03 : 17
体裁: 种类
导演: Stanislas Giroux

关于电影:

        您听说过Trakistan吗?加入巴基斯坦卡车司机,在一个充满活力的充满活力的游乐场中探索这个虚构的国家!

General
Unique ID                      : 222572673221650234366103566736008408047 (0xA771F00799F9801F1A21D415EF8BEBEF)
Complete name                  : D:\国家地理\巴基斯坦水土风情(512MB)(2019)WE​​BRip 2160p.mkv
Format                         : Matroska
Format version                 : Version 4
File size                      : 512 MiB
Duration                       : 3 min 17 s
Overall bit rate               : 21.8 Mb/s
Encoded date                   : UTC 2021-03-03 10:21:03
Writing application            : mkvmerge v54.0.0 ('F Maj Pixie') 64-bit
Writing library                : libebml v1.4.2 + libmatroska v1.6.3

Video
ID                             : 1
Format                         : AVC
Format/Info                    : Advanced Video Codec
Format profile                 : High@L5.2
Format settings                : CABAC / 5 Ref Frames
Format settings, CABAC         : Yes
Format settings, Reference fra : 5 frames
Codec ID                       : V_MPEG4/ISO/AVC
Duration                       : 3 min 17 s
Bit rate                       : 21.6 Mb/s
Width                          : 3 840 pixels
Height                         : 2 160 pixels
Display aspect ratio           : 16:9
Frame rate mode                : Constant
Frame rate                     : 24.000 FPS
Color space                    : YUV
Chroma subsampling             : 4:2:0
Bit depth                      : 8 bits
Scan type                      : Progressive
Bits/(Pixel*Frame)             : 0.108
Stream size                    : 506 MiB (99%)
Writing library                : x264 core 157 r10 d4099dd
Encoding settings              : cabac=1 / ref=5 / deblock=1:0:0 / analyse=0x3:0x113 / me=hex / subme=8 / psy=1 / psy_rd=1.00:0.00 / mixed_ref=1 / me_range=16 / chroma_me=1 / trellis=2 / 8x8dct=1 / cqm=0 / deadzone=21,11 / fast_pskip=1 / chroma_qp_offset=-2 / threads=48 / lookahead_threads=8 / sliced_threads=0 / nr=0 / decimate=1 / interlaced=0 / bluray_compat=0 / stitchable=1 / constrained_intra=0 / bframes=3 / b_pyramid=2 / b_adapt=2 / b_bias=0 / direct=3 / weightb=1 / open_gop=0 / weightp=2 / keyint=infinite / keyint_min=24 / scenecut=40 / intra_refresh=0 / rc_lookahead=50 / rc=crf / mbtree=1 / crf=20.0 / qcomp=0.60 / qpmin=5 / qpmax=69 / qpstep=4 / vbv_maxrate=24200 / vbv_bufsize=66000 / crf_max=0.0 / nal_hrd=none / filler=0 / ip_ratio=1.40 / aq=1:1.00
Default                        : Yes
Forced                         : No
Color range                    : Limited
Color primaries                : BT.709
Transfer characteristics       : BT.709
Matrix coefficients            : BT.709

Audio
ID                             : 2
Format                         : AAC LC
Format/Info                    : Advanced Audio Codec Low Complexity
Codec ID                       : A_AAC-2
Duration                       : 3 min 17 s
Bit rate                       : 253 kb/s
Channel(s)                     : 2 channels
Channel layout                 : L R
Sampling rate                  : 48.0 kHz
Frame rate                     : 46.875 FPS (1024 SPF)
Compression mode               : Lossy
Stream size                    : 5.95 MiB (1%)
Default                        : Yes
Forced                         : No



下载地址:
****此区域为收费内容****    需支付 15 金币后可查看立即购买




.


回复

使用道具 举报

0

主题

1512

帖子

4116

积分

4K家园VIP

Rank: 9Rank: 9Rank: 9

积分
4116
发表于 5 天前 | 显示全部楼层
珍爱生命,果断回帖。
回复 支持 反对

使用道具 举报

0

主题

5450

帖子

1万

积分

4K家园VIP

Rank: 9Rank: 9Rank: 9

积分
13017
发表于 5 天前 | 显示全部楼层
巴基斯坦水土風情4k
回复 支持 反对

使用道具 举报

59

主题

1391

帖子

3995

积分

4K家园VIP

Rank: 9Rank: 9Rank: 9

积分
3995
发表于 4 天前 来自手机 | 显示全部楼层
都不知道说的啥
回复 支持 反对

使用道具 举报

0

主题

1256

帖子

3590

积分

4K家园VIP

Rank: 9Rank: 9Rank: 9

积分
3590
发表于 3 天前 | 显示全部楼层
占坑编辑ing
回复 支持 反对

使用道具 举报

1

主题

1531

帖子

4173

积分

4K家园VIP

Rank: 9Rank: 9Rank: 9

积分
4173
发表于 前天 01:17 来自手机 | 显示全部楼层
4K版的应该更清晰吧
回复 支持 反对

使用道具 举报

0

主题

1608

帖子

4432

积分

4K家园VIP

Rank: 9Rank: 9Rank: 9

积分
4432
发表于 昨天 06:46 来自手机 | 显示全部楼层
出4K版啦,下个看看
回复 支持 反对

使用道具 举报

您需要登录后才可以回帖 登录 | 立即注册

本版积分规则

精彩图文
Archiver|手机版|TAG|Sitemap|新帖|专题|联系我们:邮箱: 4kjia.com@gmail.com   

4k家园   ©2019