[4K电影] 热线舞女 Party Line (1988) 4K高清版本下载13.24GB

[复制链接]

2

主题

1679

帖子

4583

积分

中级会员

Rank: 4

积分
4583
 楼主| 发表于 2021-6-30 10:49:11 | 显示全部楼层 |阅读模式
QQ图片20210630104541_副本_meitu_4.jpg

◎片  名 Party Line
◎年  代 1988
◎产  地 美国
◎类  别 惊悚
◎语  言 英语
◎上映日期 1988
◎IMDb评分  5.0/10 from 157 users
◎IMDb链接  http://www.imdb.com/title/tt0095825
◎豆瓣评分 0/10 from 0 users
◎豆瓣链接 https://movie.douban.com/subject/5046685/
◎片  长 91 分钟
◎导  演 William Webb
◎编  剧 Richard Brandes
◎主  演 理查德·哈奇 Richard Hatch
      Shawn Weatherly
      理查德·朗德特依 Richard Roundtree


◎简  介  

  有钱的兄弟姐妹是疯狂的杀手。她引诱男人到她床上,他攻击并谋杀他们。一个侦探被指派去寻找凶手并把他们带进来。

Video
ID : 1
Format : HEVC
Format/Info : High Efficiency Video Coding
Format profile : Main 10@L5@High
Codec ID : V_MPEGH/ISO/HEVC
Duration : 1 h 30 min
Bit rate : 20.8 Mb/s
Width : 3 832 pixels
Height : 2 152 pixels
Display aspect ratio : 16:9
Frame rate mode : Constant
Frame rate : 23.976 FPS
Color space : YUV
Chroma subsampling : 4:2:0
Bit depth : 10 bits
Bits/(Pixel*Frame) : 0.105
Stream size : 13.2 GiB (99%)
Default : Yes
Forced : No
Color range : Limited
Color primaries : BT.709
Transfer characteristics : BT.709
Matrix coefficients : BT.709

Audio
ID : 2
Format : AAC LC
Format/Info : Advanced Audio Codec Low Complexity
Codec ID : A_AAC-2
Duration : 1 h 30 min
Bit rate : 115 kb/s
Channel(s) : 2 channels
Channel layout : L R
Sampling rate : 48.0 kHz
Frame rate : 46.875 FPS (1024 SPF)
Compression mode : Lossy
Stream size : 74.4 MiB (1%)
Title : English
Language : English
Default : No
Forced : No

Text #1
ID : 3
Format : UTF-8
Codec ID : S_TEXT/UTF8
Codec ID/Info : UTF-8 Plain Text
Duration : 13 min 42 s
Bit rate : 62 b/s
Count of elements : 240
Stream size : 6.30 KiB (0%)
Title : English SDH
Language : English
Default : No
Forced : No

Text #2
ID : 4
Format : UTF-8
Codec ID : S_TEXT/UTF8
Codec ID/Info : UTF-8 Plain Text
Duration : 13 min 3 s
Bit rate : 58 b/s
Count of elements : 210
Stream size : 5.57 KiB (0%)
Title : English
Language : English
Default : No
Forced : No

下载地址
游客,如果您要查看本帖隐藏内容请回复






回复

使用道具 举报

48

主题

1435

帖子

4107

积分

4K家园VIP

Rank: 9Rank: 9Rank: 9

积分
4107
发表于 2021-6-30 10:49:16 | 显示全部楼层
好帖必须得顶起
回复 支持 反对

使用道具 举报

1

主题

1479

帖子

4279

积分

4K家园VIP

Rank: 9Rank: 9Rank: 9

积分
4279
发表于 2021-7-2 11:47:20 | 显示全部楼层
没看懂
回复 支持 反对

使用道具 举报

0

主题

1

帖子

6

积分

新手上路

Rank: 1

积分
6
发表于 2021-7-5 17:03:14 | 显示全部楼层

chattrube

chattrube
回复

使用道具 举报

43

主题

1412

帖子

4042

积分

4K家园VIP

Rank: 9Rank: 9Rank: 9

积分
4042
发表于 2021-7-6 12:37:51 来自手机 | 显示全部楼层
看起来不错
回复 支持 反对

使用道具 举报

40

主题

1401

帖子

4007

积分

4K家园VIP

Rank: 9Rank: 9Rank: 9

积分
4007
发表于 2021-7-12 13:40:57 来自手机 | 显示全部楼层
求沙发
回复 支持 反对

使用道具 举报

50

主题

1381

帖子

4045

积分

4K家园VIP

Rank: 9Rank: 9Rank: 9

积分
4045
发表于 2021-7-13 19:52:10 | 显示全部楼层
学习下
回复 支持 反对

使用道具 举报

您需要登录后才可以回帖 登录 | 立即注册

本版积分规则

精彩图文
Archiver|手机版|TAG|Sitemap|新帖|专题|联系我们:邮箱: 4kjia.com@gmail.com   

4k家园   ©2019