[4K电影] 布吉 / Boogie (2021) 4K高清版本下载/11.37GB

[复制链接]

3

主题

1533

帖子

4239

积分

4K家园VIP

Rank: 9Rank: 9Rank: 9

积分
4239
 楼主| 发表于 2021-6-30 11:35:58 | 显示全部楼层 |阅读模式

QQ图片20210630113322_副本_meitu_8.jpg

◎译  名 布吉/不羁/布吉闯篮关(台)
◎片  名 Boogie
◎年  代 2021
◎产  地 美国
◎类  别 剧情
◎语  言 英语
◎上映日期 2021-03-05(美国)
◎IMDb评分  5.3/10 from 340 users
◎IMDb链接  https://www.imdb.com/title/tt10896398
◎豆瓣评分 0/10 from 0 users
◎豆瓣链接 https://movie.douban.com/subject/35228620/
◎片  长 90分钟
◎导  演 黄颐铭 Eddie Huang
◎编  剧 黄颐铭 Eddie Huang
◎主  演 泰勒·高桥 Taylor Takahashi
       泰勒·佩姬 Taylour Paige
       帕普·斯默克 Pop Smoke
       齐騛 Pamelyn Chee
       杨佩里 Perry Yung
       小豪尔赫·兰登伯格 Jorge Lendeborg Jr.
       麦克·莫 Mike Moh
       多米尼克·隆巴多兹 Domenick Lombardozzi
       阿历萨·马雷卡 Alexa Mareka
       黄颐铭 Eddie Huang
       斯蒂芬·考特尔 Steve Coulter
       许佳倩 Claire Hsu
       本杰明·杰伊·戴维斯 Benjamin Jay Davis
       埃德·亚里士多德 Ed Aristone
       汤米·波 Tommy Bo
       特雷勒·希尔 Terayle Hill
       米斯特·菲茨杰拉德 Mister Fitzgerald



◎简  介  

  一心想要进入NBA打篮球的少年成长故事。在父母莫大的压力下,进入有全额奖学金的菁英大学是唯一的出路,而他则必须在新女友、新学校、球场上的竞争对手以及喘不过气的期望中找到自己的出路。

Video
ID : 1
Format : HEVC
Format/Info : High Efficiency Video Coding
Format profile : Main 10@L5@High
HDR format : SMPTE ST 2086, HDR10 compatible
Codec ID : V_MPEGH/ISO/HEVC
Duration : 1 h 30 min
Bit rate : 14.2 Mb/s
Width : 3 836 pixels
Height : 1 600 pixels
Display aspect ratio : 2.40:1
Original display aspect ratio : 2.40:1
Frame rate mode : Constant
Frame rate : 23.976 FPS
Color space : YUV
Chroma subsampling : 4:2:0 (Type 2)
Bit depth : 10 bits
Bits/(Pixel*Frame) : 0.096
Stream size : 8.93 GiB (79%)
Default : Yes
Forced : No
Color range : Limited
Color primaries : BT.2020
Transfer characteristics : PQ
Matrix coefficients : BT.2020 non-constant
Mastering display color primaries : Display P3
Mastering display luminance : min: 0.0050 cd/m2, max: 1000 cd/m2
Maximum Content Light Level : 1000 cd/m2
Maximum Frame-Average Light Level : 191 cd/m2

Audio #1
ID : 2
ID in the original source medium : 4352 (0x1100)
Format : DTS XLL
Format/Info : Digital Theater Systems
Commercial name : DTS-HD Master Audio
Codec ID : A_DTS
Duration : 1 h 29 min
Bit rate mode : Variable
Bit rate : 3 496 kb/s
Channel(s) : 6 channels
Channel layout : C L R Ls Rs LFE
Sampling rate : 48.0 kHz
Frame rate : 93.750 FPS (512 SPF)
Bit depth : 24 bits
Compression mode : Lossless
Delay relative to video : 24 s 400 ms
Stream size : 2.19 GiB (19%)
Title : DTS-HD MA 5.1
Language : English
Default : Yes
Forced : No
Original source medium : Blu-ray

Audio #2
ID : 3
Format : AC-3
Format/Info : Audio Coding 3
Commercial name : Dolby Digital
Codec ID : A_AC3
Duration : 1 h 30 min
Bit rate mode : Constant
Bit rate : 384 kb/s
Channel(s) : 6 channels
Channel layout : L R C LFE Ls Rs
Sampling rate : 48.0 kHz
Frame rate : 31.250 FPS (1536 SPF)
Compression mode : Lossy
Stream size : 248 MiB (2%)
Title : English
Language : English
Service kind : Complete Main
Default : No
Forced : No

Text
ID : 4
Format : UTF-8
Codec ID : S_TEXT/UTF8
Codec ID/Info : UTF-8 Plain Text
Duration : 1 h 27 min
Bit rate : 75 b/s
Count of elements : 1529
Stream size : 48.6 KiB (0%)
Language : English
Default : Yes
Forced : No

Menu
00:00:00.000 : Chapter 01
00:04:53.293 : Chapter 02
00:10:14.864 : Chapter 03
00:12:06.392 : Chapter 04
00:16:47.673 : Chapter 05
00:22:59.920 : Chapter 06
00:25:49.256 : Chapter 07
00:30:12.769 : Chapter 08
00:35:17.573 : Chapter 09
00:40:00.022 : Chapter 10
00:44:52.106 : Chapter 11
00:49:18.497 : Chapter 12
00:55:10.598 : Chapter 13
00:59:42.495 : Chapter 14
01:05:55.034 : Chapter 15
01:09:54.273 : Chapter 16
01:11:27.157 : Chapter 17
01:15:11.924 : Chapter 18
01:20:38.083 : Chapter 19
01:25:39.217 : Chapter 20



下载地址
游客,如果您要查看本帖隐藏内容请回复

游客,如果您要查看本帖隐藏内容请回复



.
回复

使用道具 举报

1

主题

1238

帖子

3598

积分

4K家园VIP

Rank: 9Rank: 9Rank: 9

积分
3598
发表于 2021-6-30 11:36:26 | 显示全部楼层
感谢楼主发帖,前排顶起
回复 支持 反对

使用道具 举报

40

主题

1449

帖子

4137

积分

4K家园VIP

Rank: 9Rank: 9Rank: 9

积分
4137
发表于 2021-7-1 10:27:13 | 显示全部楼层
什么东西啊
回复 支持 反对

使用道具 举报

0

主题

1305

帖子

3759

积分

4K家园VIP

Rank: 9Rank: 9Rank: 9

积分
3759
发表于 2021-7-2 02:28:08 | 显示全部楼层
感谢推荐,确实不错
回复 支持 反对

使用道具 举报

1

主题

1302

帖子

3750

积分

4K家园VIP

Rank: 9Rank: 9Rank: 9

积分
3750
发表于 2021-7-8 07:35:15 | 显示全部楼层
都不知道说的啥
回复 支持 反对

使用道具 举报

53

主题

1155

帖子

3531

积分

4K家园VIP

Rank: 9Rank: 9Rank: 9

积分
3531
发表于 2021-7-13 16:44:19 | 显示全部楼层
怎么这么大,希望我电视能看啊
回复 支持 反对

使用道具 举报

您需要登录后才可以回帖 登录 | 立即注册

本版积分规则

精彩图文
Archiver|手机版|TAG|Sitemap|新帖|专题|联系我们:邮箱: 4kjia.com@gmail.com   

4k家园   ©2019