[4K电影] 嗜血本性 Bloodthirsty (2020) 4K高清版本下载/7.37GB

[复制链接]

6

主题

1363

帖子

3933

积分

4K家园VIP

Rank: 9Rank: 9Rank: 9

积分
3933
 楼主| 发表于 2021-6-30 11:50:56 | 显示全部楼层 |阅读模式

QQ图片20210630114141_副本_meitu_9.jpg

◎译  名 嗜血本性
◎片  名 Bloodthirsty
◎年  代 2020
◎产  地 加拿大
◎类  别 恐怖
◎语  言 英语
◎上映日期 2020-10-01(奇幻电影节) / 2021-04-23(加拿大)
◎IMDb评分  4.6/10 from 501 users
◎IMDb链接  https://www.imdb.com/title/tt12399056/
◎豆瓣评分 4.5/10 from 51 users
◎豆瓣链接 https://movie.douban.com/subject/35351362/
◎片  长 84 分钟
◎导  演 Amelia Moses
◎编  剧   Wendy Hill-Tout / Lowell
◎主  演 Lauren Beatty
                   Greg Bryk
                   Katharine King So



◎简  介


          格雷是一个独立歌手,她幻想自己是一只狼。当她收到邀请,与臭名昭著的音乐制作人沃恩·丹尼尔斯在他位于森林里的偏远工作室合作时,她开始发现自己到底是谁。
Video
ID : 1
Format : HEVC
Format/Info : High Efficiency Video Coding
Format profile : Main 10@L5@High
Codec ID : V_MPEGH/ISO/HEVC
Duration : 1 h 24 min
Bit rate : 12.1 Mb/s
Width : 3 832 pixels
Height : 1 602 pixels
Display aspect ratio : 2.40:1
Frame rate mode : Constant
Frame rate : 23.976 FPS
Color space : YUV
Chroma subsampling : 4:2:0
Bit depth : 10 bits
Bits/(Pixel*Frame) : 0.082
Stream size : 7.14 GiB (97%)
Default : Yes
Forced : No
Color range : Limited
Color primaries : BT.709
Transfer characteristics : BT.709
Matrix coefficients : BT.709

Audio
ID : 2
Format : AC-3
Format/Info : Audio Coding 3
Commercial name : Dolby Digital
Codec ID : A_AC3
Duration : 1 h 24 min
Bit rate mode : Constant
Bit rate : 384 kb/s
Channel(s) : 6 channels
Channel layout : L R C LFE Ls Rs
Sampling rate : 48.0 kHz
Frame rate : 31.250 FPS (1536 SPF)
Compression mode : Lossy
Stream size : 232 MiB (3%)
Title : English
Language : English
Service kind : Complete Main
Default : No
Forced : No

Text #1
ID : 3
Format : UTF-8
Codec ID : S_TEXT/UTF8
Codec ID/Info : UTF-8 Plain Text
Duration : 22 min 29 s
Bit rate : 54 b/s
Count of elements : 306
Stream size : 9.03 KiB (0%)
Title : English SDH
Language : English
Default : No
Forced : No

Text #2
ID : 4
Format : UTF-8
Codec ID : S_TEXT/UTF8
Codec ID/Info : UTF-8 Plain Text
Duration : 18 min 59 s
Bit rate : 49 b/s
Count of elements : 237
Stream size : 6.88 KiB (0%)
Title : English
Language : English
Default : No
Forced : No


地址:
游客,如果您要查看本帖隐藏内容请回复




回复

使用道具 举报

1

主题

1211

帖子

3655

积分

4K家园VIP

Rank: 9Rank: 9Rank: 9

积分
3655
发表于 2021-6-30 11:51:00 | 显示全部楼层
楼猪辛苦了,支持一下分享好资源
回复 支持 反对

使用道具 举报

0

主题

61

帖子

239

积分

新手上路

Rank: 1

积分
239
发表于 2021-6-30 13:50:51 | 显示全部楼层
我看不错噢 谢谢楼主!
回复 支持 反对

使用道具 举报

0

主题

560

帖子

1946

积分

注册会员

Rank: 2

积分
1946
发表于 2021-6-30 23:21:39 | 显示全部楼层
感谢楼主分享
回复 支持 反对

使用道具 举报

1

主题

1164

帖子

3508

积分

4K家园VIP

Rank: 9Rank: 9Rank: 9

积分
3508
发表于 2021-7-1 09:37:12 | 显示全部楼层
路过 帮顶 嘿嘿
回复 支持 反对

使用道具 举报

0

主题

1

帖子

6

积分

新手上路

Rank: 1

积分
6
发表于 2021-7-3 20:51:56 | 显示全部楼层

bonga com live

bonga com live
回复 支持 反对

使用道具 举报

3

主题

1237

帖子

3729

积分

4K家园VIP

Rank: 9Rank: 9Rank: 9

积分
3729
发表于 2021-7-8 14:02:17 | 显示全部楼层
边撸边过
回复 支持 反对

使用道具 举报

39

主题

1346

帖子

3800

积分

4K家园VIP

Rank: 9Rank: 9Rank: 9

积分
3800
发表于 2021-7-9 10:00:41 | 显示全部楼层
谢谢楼主
回复 支持 反对

使用道具 举报

1

主题

1281

帖子

3863

积分

4K家园VIP

Rank: 9Rank: 9Rank: 9

积分
3863
发表于 2021-7-13 08:41:16 | 显示全部楼层
介是神马?!!
回复 支持 反对

使用道具 举报

您需要登录后才可以回帖 登录 | 立即注册

本版积分规则

精彩图文
Archiver|手机版|TAG|Sitemap|新帖|专题|联系我们:邮箱: 4kjia.com@gmail.com   

4k家园   ©2019