[4K电影] 绛帐海堂春 Born Yesterday (1950) 4K高清版本下载/14.84GB

[复制链接]

5

主题

1257

帖子

3623

积分

中级会员

Rank: 4

积分
3623
 楼主| 发表于 2021-6-30 12:43:50 | 显示全部楼层 |阅读模式
QQ图片20210630124027_副本_meitu_10.jpg

◎译  名 绛帐海堂春/佳人也有约/出位妙女郎/绛帐海棠春
◎片  名 Born Yesterday
◎年  代 1950
◎产  地 美国
◎类  别 剧情 / 喜剧 / 爱情
◎语  言 英语
◎上映日期 1950-12-25
◎IMDb评分 7.6/10 from 9733 users
◎IMDb链接 https://www.imdb.com/title/tt0042276/
◎豆瓣评分 6.8/10 from 283 users
◎豆瓣链接 https://movie.douban.com/subject/1296815/
◎片  长 103 分钟
◎导  演 乔治·库克 George Cukor
◎编  剧 阿尔贝特·曼海默 Albert Mannheimer / 加森·卡宁 Garson Kanin
◎主  演 朱迪·霍利德 Judy Holliday
      布罗德里克·克劳福德 Broderick Crawford
      威廉·霍尔登 William Holden
      霍华德·圣约翰 Howard St. John
      John Morley
      格兰丁·罗德 Grandon Rhodes
      Smoki Whitfield
      Ram Singh
      Paul Marion
      海伦·艾比罗克 Helen Eby-Rock
      Charles Cane
      Barbara Brown
      克莱尔·卡尔顿 Claire Carleton
      迈克·马奥尼 Mike Mahoney
      Larry Oliver



◎简  介

  本片女演员好莱坞红唇丽影 茱蒂·荷丽黛Judy Holliday获1951年第23届奥斯卡金像奖影后。

  财大气粗的布鲁克先生包下了酒店的一个楼层,随他而来的是他的情人比利。报社的记者保罗来完成他的专访,听任布鲁克先生滔滔不绝地讲述他的成功经验。他起家于贩毒,而他的第一份工作是卖报。随着他的生意越来越大,要与许多上流人物交流,可是他的比利不过是合唱队的二流演员,粗鲁、无知,开口就是错。于是布鲁克先生想到了一个办法,以每周200元的薪水雇保罗做她的教师,教她一些待人接物的技巧和礼仪,改变她原来大吵大嚷、缺乏教养的举止。

  待她有了初步的改变以后,比利开始瞧不起她的老板,因为他正是从前的自己,她开始反抗老板的意志,这使布鲁克后悔自己不该做当初的决定。

  乔治·顾柯(George Cukor),美国最杰出的导演之一,是好莱坞少见的擅长拍女性故事的导演。顾柯一生导演了65部影片;从30年代至60年代,均有佳作问世,堪称好莱坞的常青树,他5次获得奥斯卡最佳导演提名,并与1965年凭借《窈窕淑女》获最佳导演奖;美国导演协会于1981年向他颁发了终生成就奖。1978年美国电影协会特别为乔治·顾柯举办致敬会,在他以前只有5个影人受此殊荣。

◎获奖情况

  第23届奥斯卡金像奖 ?(1951)
  最佳影片(提名)
  最佳导演(提名) 乔治·库克
  最佳女主角 朱迪·霍利德
  最佳编剧(提名) 阿尔贝特·曼海默
  黑白片最佳服装设计(提名) JeanLouis

  第12届威尼斯电影节 ?(1951)
  主竞赛单元金狮奖(提名) 乔治·库克

  第8届金球奖 ?(1951)
  电影类最佳剧情片(提名)
  电影类最佳导演(提名) 乔治·库克
  电影类剧情片最佳女主角(提名) 朱迪·霍利德
  电影类音乐/喜剧片最佳女主角 朱迪·霍利德

Video
ID : 1
Format : HEVC
Format/Info : High Efficiency Video Coding
Format profile : Main 10@L5@High
Codec ID : V_MPEGH/ISO/HEVC
Duration : 1 h 42 min
Bit rate : 20.7 Mb/s
Width : 2 888 pixels
Height : 2 152 pixels
Display aspect ratio : 4:3
Frame rate mode : Constant
Frame rate : 23.976 FPS
Color space : YUV
Chroma subsampling : 4:2:0
Bit depth : 10 bits
Bits/(Pixel*Frame) : 0.139
Stream size : 14.8 GiB (99%)
Default : Yes
Forced : No
Color range : Limited
Color primaries : BT.709
Transfer characteristics : BT.709
Matrix coefficients : BT.709

Audio
ID : 2
Format : AAC LC
Format/Info : Advanced Audio Codec Low Complexity
Codec ID : A_AAC-2
Duration : 1 h 42 min
Bit rate : 108 kb/s
Channel(s) : 2 channels
Channel layout : L R
Sampling rate : 48.0 kHz
Frame rate : 46.875 FPS (1024 SPF)
Compression mode : Lossy
Stream size : 79.3 MiB (1%)
Title : English
Language : English
Default : No
Forced : No

Text #1
ID : 3
Format : UTF-8
Codec ID : S_TEXT/UTF8
Codec ID/Info : UTF-8 Plain Text
Duration : 12 min 14 s
Bit rate : 112 b/s
Count of elements : 276
Stream size : 10.1 KiB (0%)
Title : English
Language : English
Default : No
Forced : No

Text #2
ID : 4
Format : UTF-8
Codec ID : S_TEXT/UTF8
Codec ID/Info : UTF-8 Plain Text
Duration : 12 min 19 s
Bit rate : 112 b/s
Count of elements : 280
Stream size : 10.2 KiB (0%)
Title : English SDH
Language : English
Default : No
Forced : No


下载地址
绛帐海堂春(14.84GB)Born.Yesterday.1950.2160p.WEB.H265-EMPATHY.torrent (74.87 KB, 售价: 9 金币)
回复

使用道具 举报

48

主题

1408

帖子

4042

积分

4K家园VIP

Rank: 9Rank: 9Rank: 9

积分
4042
发表于 2021-6-30 12:43:58 | 显示全部楼层
试试看吧
回复 支持 反对

使用道具 举报

0

主题

61

帖子

239

积分

新手上路

Rank: 1

积分
239
发表于 2021-6-30 13:50:22 | 显示全部楼层
这个帖子不回对不起自己!我想我是一天也不能离
回复 支持 反对

使用道具 举报

0

主题

560

帖子

1946

积分

注册会员

Rank: 2

积分
1946
发表于 2021-6-30 23:21:31 | 显示全部楼层
感谢楼主分享
回复 支持 反对

使用道具 举报

2

主题

1251

帖子

3769

积分

4K家园VIP

Rank: 9Rank: 9Rank: 9

积分
3769
发表于 2021-7-2 16:10:52 | 显示全部楼层
佩服佩服!
回复 支持 反对

使用道具 举报

0

主题

1095

帖子

3299

积分

4K家园VIP

Rank: 9Rank: 9Rank: 9

积分
3299
发表于 2021-7-3 23:46:02 | 显示全部楼层
为了三千积分!
回复 支持 反对

使用道具 举报

1

主题

1073

帖子

3239

积分

4K家园VIP

Rank: 9Rank: 9Rank: 9

积分
3239
发表于 2021-7-8 02:56:42 | 显示全部楼层
发发呆,回回帖,工作结束~
回复 支持 反对

使用道具 举报

1

主题

1256

帖子

3598

积分

4K家园VIP

Rank: 9Rank: 9Rank: 9

积分
3598
发表于 2021-7-12 09:34:49 | 显示全部楼层
4K版的应该更清晰吧
回复 支持 反对

使用道具 举报

您需要登录后才可以回帖 登录 | 立即注册

本版积分规则

精彩图文
Archiver|手机版|TAG|Sitemap|新帖|专题|联系我们:邮箱: 4kjia.com@gmail.com   

4k家园   ©2019