[4Kjia独享4K资源] 新王加冕/Born a Champion (2020) 4K高清版本下载/14.02GB

[复制链接]

742

主题

783

帖子

6748

积分

超级版主

Rank: 8Rank: 8

积分
6748
 楼主| 发表于 2021-7-1 12:40:31 | 显示全部楼层 |阅读模式
本帖最后由 最爱4K哟 于 2021-7-1 18:47 编辑

QQ图片20210701123637_副本.png

◎译  名 新王加冕/Mickey Kelley
◎片  名 Born a Champion
◎年  代 2020
◎产  地 美国
◎类  别 剧情 / 传记 / 运动
◎语  言 英语
◎上映日期 2021-01-22(美国)
◎IMDb评分 7/10 from 1348 users
◎IMDb链接 https://www.imdb.com/title/tt10661710/
◎豆瓣评分 7.6/10 from 1195 users
◎豆瓣链接 https://movie.douban.com/subject/34884701/
◎片  长 112分钟
◎导  演 亚历克斯·兰阿瑞佛罗 Alex Ranarivelo
◎编  剧 肖恩·派特里克·弗兰纳里 Sean Patrick Flanery / 亚历克斯·兰阿瑞佛罗 Alex Ranarivelo
◎主  演 肖恩·派特里克·弗兰纳里 Sean Patrick Flanery
      莫里斯·孔特 Maurice Compte
      卡特里娜·宝登 Katrina Bowden
      丹尼斯·奎德 Dennis Quaid
      雷诺·维尔森 Reno Wilson
      库里·格拉汉姆 Currie Graham
      科斯塔斯·曼迪勒 Costas Mandylor
      埃德森?巴博萨 Edson Barboza
      阿里·阿夫沙尔 Ali Afshar
      克里斯汀·基默 Christine Kilmer
      保罗J艾乐西 Paul J. Alessi
      米奇?高尔 Mickey Gall
      伦佐·格雷西 Renzo Gracie
      马歇尔·菲尔 Marshelle Fair
      威廉·W·巴伯 William W. Barbour
      Joe Mahon


◎简  介

  米基·凯利,巴西柔术界第一批美国黑带选手之一,他远离了他所热爱的一切,参加了一场未经批准的MMA锦标赛。
General
Unique ID                      : 329739854738014662947024804441631504396 (0xF8119604BCB9556FF6EF213722F8380C)
Complete name                  : E:Born.a.Champion.2021.HDR.2160p.WEB-DL.DDP5.1.x265-ROCCaT.mkv
Format                         : Matroska
Format version                 : Version 4
File size                      : 11.4 GiB
Duration                       : 1 h 51 min
Overall bit rate               : 14.6 Mb/s
Encoded date                   : UTC 2021-06-30 22:36:27
Writing application            : mkvmerge v58.0.0 ('Supper's Ready') 64-bit
Writing library                : libebml v1.4.2 + libmatroska v1.6.4
IsTruncated                    : Yes

Video
ID                             : 1
Format                         : HEVC
Format/Info                    : High Efficiency Video Coding
Format profile                 : Main 10@L5.1@Main
HDR format                     : SMPTE ST 2086, HDR10 compatible
Codec ID                       : V_MPEGH/ISO/HEVC
Duration                       : 1 h 51 min
Bit rate                       : 14.1 Mb/s
Width                          : 3 840 pixels
Height                         : 2 160 pixels
Display aspect ratio           : 16:9
Frame rate mode                : Constant
Frame rate                     : 23.976 (23976/1000) FPS
Color space                    : YUV
Chroma subsampling             : 4:2:0
Bit depth                      : 10 bits
Bits/(Pixel*Frame)             : 0.071
Stream size                    : 10.9 GiB (96%)
Writing library                : x265 3.4:[Linux][GCC 6.3.0][64 bit] 10bit
Encoding settings              : cpuid=1111039 / frame-threads=3 / wpp / no-pmode / no-pme / no-psnr / no-ssim / log-level=2 / input-csp=1 / input-res=3840x2160 / interlace=0 / total-frames=0 / level-idc=51 / high-tier=1 / uhd-bd=0 / ref=2 / no-allow-non-conformance / repeat-headers / annexb / no-aud / no-hrd / info / hash=0 / no-temporal-layers / no-open-gop / min-keyint=24 / keyint=48 / gop-lookahead=0 / bframes=3 / b-adapt=0 / no-b-pyramid / bframe-bias=0 / rc-lookahead=15 / lookahead-slices=8 / scenecut=0 / radl=0 / no-splice / no-intra-refresh / ctu=64 / min-cu-size=8 / no-rect / no-amp / max-tu-size=32 / tu-inter-depth=1 / tu-intra-depth=1 / limit-tu=0 / rdoq-level=0 / dynamic-rd=0.00 / no-ssim-rd / signhide / no-tskip / nr-intra=0 / nr-inter=0 / no-constrained-intra / strong-intra-smoothing / max-merge=2 / limit-refs=3 / no-limit-modes / me=1 / subme=2 / merange=57 / temporal-mvp / weightp / no-weightb / no-analyze-src-pics / deblock=0:0 / sao / no-sao-non-deblock / rd=2 / early-skip / rskip / fast-intra / no-tskip-fast / no-cu-lossless / no-b-intra / no-splitrd-skip / rdpenalty=0 / psy-rd=2.00 / psy-rdoq=0.00 / no-rd-refine / no-lossless / cbqpoffs=0 / crqpoffs=0 / rc=cbr / bitrate=14740 / qcomp=0.60 / qpstep=4 / stats-write=0 / stats-read=0 / vbv-maxrate=14740 / vbv-bufsize=28900 / vbv-init=0.9 / ipratio=1.40 / pbratio=1.30 / aq-mode=2 / aq-strength=1.00 / cutree / zone-count=0 / no-strict-cbr / qg-size=32 / no-rc-grain / qpmax=69 / qpmin=0 / no-const-vbv / sar=1 / overscan=0 / videoformat=5 / range=0 / colorprim=9 / transfer=16 / colormatrix=9 / chromaloc=0 / display-window=0 / master-display=G(13250,34500)B(7500,3000)R(34000,16000)WP(15635,16450)L(10000000,5) / max-cll=3578,347 / min-luma=0 / max-luma=1023 / log2-max-poc-lsb=8 / vui-timing-info / vui-hrd-info / slices=1 / no-opt-qp-pps / no-opt-ref-list-length-pps / no-multi-pass-opt-rps / scenecut-bias=0.05 / no-opt-cu-delta-qp / no-aq-motion / hdr / no-hdr-opt / no-dhdr10-opt / no-idr-recovery-sei / analysis-reuse-level=5 / scale-factor=0 / refine-intra=0 / refine-inter=0 / refine-mv=0 / refine-ctu-distortion=0 / no-limit-sao / ctu-info=0 / no-lowpass-dct / refine-analysis-type=0 / copy-pic=1 / max-ausize-factor=1.0 / no-dynamic-refine / no-single-sei / no-hevc-aq / qp-adaptation-range=1.00
Default                        : Yes
Forced                         : No
Color range                    : Limited
Color primaries                : BT.2020
Transfer characteristics       : PQ
Matrix coefficients            : BT.2020 non-constant
Mastering display color primar : Display P3
Mastering display luminance    : min: 0.0005 cd/m2, max: 1000 cd/m2
Maximum Content Light Level    : 3578 cd/m2
Maximum Frame-Average Light Le : 347 cd/m2

Audio
ID                             : 2
Format                         : E-AC-3
Format/Info                    : Enhanced AC-3
Commercial name                : Dolby Digital Plus
Codec ID                       : A_EAC3
Duration                       : 1 h 51 min
Bit rate mode                  : Constant
Bit rate                       : 256 kb/s
Channel(s)                     : 6 channels
Channel layout                 : L R C LFE Ls Rs
Sampling rate                  : 48.0 kHz
Frame rate                     : 31.250 FPS (1536 SPF)
Compression mode               : Lossy
Stream size                    : 204 MiB (2%)
Language                       : English
Service kind                   : Complete Main
Default                        : Yes
Forced                         : No

Text
ID                             : 3
Format                         : UTF-8
Codec ID                       : S_TEXT/UTF8
Codec ID/Info                  : UTF-8 Plain Text
Language                       : German
Default                        : No
Forced                         : No

迅雷下载资源速度为零,资源敏感和谐时,推荐使用qBittorrent等下载软件,有条件的推荐115更好的下载软件!

****此区域为收费内容****    需支付 9 金币后可查看立即购买

游客,如果您要查看本帖隐藏内容请回复

游客,如果您要查看本帖隐藏内容请回复


.
回复

使用道具 举报

742

主题

783

帖子

6748

积分

超级版主

Rank: 8Rank: 8

积分
6748
 楼主| 发表于 2021-7-1 18:31:27 | 显示全部楼层
Harone13681.jpg Harone14356.jpg Harone22615.jpg Harone22893.jpg Harone25528.jpg
回复 支持 反对

使用道具 举报

3

主题

1304

帖子

3738

积分

4K家园VIP

Rank: 9Rank: 9Rank: 9

积分
3738
发表于 2021-7-1 12:41:06 | 显示全部楼层
没人回帖。。。我来个吧
回复 支持 反对

使用道具 举报

4

主题

1127

帖子

3371

积分

4K家园VIP

Rank: 9Rank: 9Rank: 9

积分
3371
发表于 2021-7-5 00:07:52 | 显示全部楼层
回个帖子,下班咯~
回复 支持 反对

使用道具 举报

1

主题

1074

帖子

3242

积分

4K家园VIP

Rank: 9Rank: 9Rank: 9

积分
3242
发表于 2021-7-5 01:37:30 来自手机 | 显示全部楼层
向楼主学习
回复 支持 反对

使用道具 举报

2

主题

1104

帖子

3332

积分

4K家园VIP

Rank: 9Rank: 9Rank: 9

积分
3332
发表于 2021-7-5 09:11:54 | 显示全部楼层
路过的帮顶
回复 支持 反对

使用道具 举报

1

主题

1266

帖子

3814

积分

4K家园VIP

Rank: 9Rank: 9Rank: 9

积分
3814
发表于 2021-7-5 13:22:58 | 显示全部楼层
楼主这资源不错,我收藏了
回复 支持 反对

使用道具 举报

您需要登录后才可以回帖 登录 | 立即注册

本版积分规则

精彩图文
Archiver|手机版|TAG|Sitemap|新帖|专题|联系我们:邮箱: 4kjia.com@gmail.com   

4k家园   ©2019