[4K电影] 都是真的 / All Is True (2018) 4K高清版本下载/53.87GB

[复制链接]

6

主题

1362

帖子

3930

积分

4K家园VIP

Rank: 9Rank: 9Rank: 9

积分
3930
 楼主| 发表于 2021-7-1 18:42:55 | 显示全部楼层 |阅读模式
本帖最后由 最爱4K哟 于 2021-7-1 22:38 编辑

QQ图片20210701183752_副本_meitu_1.jpg

◎译  名 都是真的
◎片  名 All Is True
◎年  代 2018
◎产  地 英国
◎类  别 剧情 / 传记 / 历史
◎语  言 英语
◎上映日期 2018-12-21(美国点映) / 2019-02-08(英国)
◎IMDb评分 5.9/10 from 608 users
◎IMDb链接 http://www.imdb.com/title/tt9206798
◎豆瓣评分 7.4/10 from 116 users
◎豆瓣链接 https://movie.douban.com/subject/30366382/
◎片  长 101分钟
◎导  演 肯尼思·布拉纳 Kenneth Branagh
◎编  剧 本·埃尔顿 Ben Elton
◎主  演 肯尼思·布拉纳 Kenneth Branagh
      洛丽塔·查卡巴蒂 Lolita Chakrabarti
      杰克·科尔格雷夫·赫斯特 Jack Colgrave Hirst
      Doug Colling
      埃莉诺·德·罗汉 Eleanor de Rohan
      朱迪·丹奇 Judi Dench
      菲尔·邓斯特 Phil Dunster
      Freya Durkan
      Flora Easton
      Sam Ellis
      Ian Hearnshaw
      Cassandra Hodges
      Gerard Horan
      Matt Jessup
      伊恩·麦克莱恩 Ian McKellen
      哈利·莱斯特·史密斯 Harry Lister Smith
      凯瑟琳·怀德 Kathryn Wilder
      莉迪亚·威尔逊 Lydia Wilson




◎简  介

  索尼经典拿下莎士比亚历史剧情片《都是真的》(All Is True)的全球版权,肯尼斯·布拉纳执导并与朱迪·丹奇、伊恩·麦克莱恩主演。该片将于12月21日在纽约和洛杉矶上映一周,确保能参与颁奖季角逐,明年正式上映。
设定在1613年,莎士比亚被公认为是最伟大的作家,但在他著名的环球剧场被夷为平地后,被压垮的莎士比亚回到了斯特拉特福德,他必须面对一个麻烦的过去和一个被忽视的家庭。他唯一的儿子哈姆内特去世,他挣扎着修补与妻子和女儿破碎的关系,被迫审视自己作为丈夫和父亲的失败,他对真相的个人探索揭示了家庭内部的秘密和谎言。
Video
ID : 1
Format : HEVC
Format/Info : High Efficiency Video Coding
Format profile : Main 10@L5.2@High
HDR format : SMPTE ST 2086, HDR10 compatible
Codec ID : V_MPEGH/ISO/HEVC
Duration : 1 h 40 min
Bit rate : 73.3 Mb/s
Width : 3 840 pixels
Height : 2 160 pixels
Display aspect ratio : 16:9
Frame rate mode : Constant
Frame rate : 23.976 (24000/1001) FPS
Color space : YUV
Chroma subsampling : 4:2:0 (Type 2)
Bit depth : 10 bits
Bits/(Pixel*Frame) : 0.369
Stream size : 51.7 GiB (96%)
Language : English
Default : Yes
Forced : No
Color range : Limited
Color primaries : BT.2020
Transfer characteristics : PQ
Matrix coefficients : BT.2020 non-constant
Mastering display color primaries : Display P3
Mastering display luminance : min: 0.0050 cd/m2, max: 4000 cd/m2
Maximum Content Light Level : 898 cd/m2
Maximum Frame-Average Light Level : 192 cd/m2

Audio #1
ID : 2
Format : DTS XLL
Format/Info : Digital Theater Systems
Commercial name : DTS-HD Master Audio
Codec ID : A_DTS
Duration : 1 h 40 min
Bit rate mode : Variable
Bit rate : 1 728 kb/s
Channel(s) : 6 channels
Channel layout : C L R Ls Rs LFE
Sampling rate : 48.0 kHz
Frame rate : 93.750 FPS (512 SPF)
Bit depth : 16 bits
Compression mode : Lossless
Delay relative to video : 1 s 0 ms
Stream size : 1.22 GiB (2%)
Title : DTS-HD MA 5.1
Language : English
Default : Yes
Forced : No

Audio #2
ID : 3
Format : AC-3
Format/Info : Audio Coding 3
Commercial name : Dolby Digital
Codec ID : A_AC3
Duration : 1 h 40 min
Bit rate mode : Constant
Bit rate : 640 kb/s
Channel(s) : 6 channels
Channel layout : L R C LFE Ls Rs
Sampling rate : 48.0 kHz
Frame rate : 31.250 FPS (1536 SPF)
Compression mode : Lossy
Stream size : 462 MiB (1%)
Title : DD 5.1
Language : English
Service kind : Complete Main
Default : No
Forced : No

Audio #3
ID : 4
Format : DTS
Format/Info : Digital Theater Systems
Codec ID : A_DTS
Duration : 1 h 40 min
Bit rate mode : Constant
Bit rate : 768 kb/s
Channel(s) : 6 channels
Channel layout : C L R Ls Rs LFE
Sampling rate : 48.0 kHz
Frame rate : 93.750 FPS (512 SPF)
Bit depth : 24 bits
Compression mode : Lossy
Stream size : 554 MiB (1%)
Title : DTS 5.1
Language : English
Default : No
Forced : No

Text
ID : 5
Format : UTF-8
Codec ID : S_TEXT/UTF8
Codec ID/Info : UTF-8 Plain Text
Duration : 1 h 40 min
Bit rate : 79 b/s
Count of elements : 1446
Stream size : 58.8 KiB (0%)
Language : English
Default : No
Forced : No

Menu
00:00:00.000 : Chapter 1
00:05:59.359 : Chapter 2
00:12:24.159 : Chapter 3
00:18:53.131 : Chapter 4
00:22:30.431 : Chapter 5
00:29:20.174 : Chapter 6
00:35:47.269 : Chapter 7
00:39:06.426 : Chapter 8
00:49:07.902 : Chapter 9
00:59:53.839 : Chapter 10
01:03:35.352 : Chapter 11
01:09:43.762 : Chapter 12
01:15:15.010 : Chapter 13
01:18:54.020 : Chapter 14
01:25:13.149 : Chapter 15
01:31:34.196 : Chapter 16

下载地址
游客,如果您要查看本帖隐藏内容请回复




.
回复

使用道具 举报

42

主题

1436

帖子

4120

积分

4K家园VIP

Rank: 9Rank: 9Rank: 9

积分
4120
发表于 2021-7-1 18:43:00 | 显示全部楼层
路过的帮顶
回复 支持 反对

使用道具 举报

0

主题

5563

帖子

1万

积分

4K家园VIP

Rank: 9Rank: 9Rank: 9

积分
13230
发表于 2021-7-1 19:30:38 | 显示全部楼层
都是真的4k
回复 支持 反对

使用道具 举报

3

主题

1237

帖子

3729

积分

4K家园VIP

Rank: 9Rank: 9Rank: 9

积分
3729
发表于 2021-7-3 13:54:28 来自手机 | 显示全部楼层
正需要
回复 支持 反对

使用道具 举报

4

主题

1333

帖子

3843

积分

4K家园VIP

Rank: 9Rank: 9Rank: 9

积分
3843
发表于 2021-7-8 00:05:08 | 显示全部楼层
没明白
回复 支持 反对

使用道具 举报

47

主题

1496

帖子

4298

积分

4K家园VIP

Rank: 9Rank: 9Rank: 9

积分
4298
发表于 2021-7-9 21:22:32 | 显示全部楼层
有4K版卡,下个看下
回复 支持 反对

使用道具 举报

2

主题

1253

帖子

3569

积分

4K家园VIP

Rank: 9Rank: 9Rank: 9

积分
3569
发表于 2021-7-10 09:08:06 来自手机 | 显示全部楼层
发发呆,回回帖,工作结束~
回复 支持 反对

使用道具 举报

您需要登录后才可以回帖 登录 | 立即注册

本版积分规则

精彩图文
Archiver|手机版|TAG|Sitemap|新帖|专题|联系我们:邮箱: 4kjia.com@gmail.com   

4k家园   ©2019